#TITLE:LION EDDIE;
#SUBTITLE:;
#ARTIST:ME&MY;
#TITLETRANSLIT:;
#SUBTITLETRANSLIT:;
#ARTISTTRANSLIT:;
#CREDIT:;
#BANNER:LION EDDIE.png.png;
#BACKGROUND:LION EDDIE.bg.png;
#LYRICSPATH:;
#CDTITLE:;
#MUSIC:LION EDDIE.mp3;
#OFFSET:-7.300;
#SAMPLESTART:30.140;
#SAMPLELENGTH:12.000;
#SELECTABLE:YES;
#BPMS:0.000=136.040;
#STOPS:;
#BGCHANGES:;

//---------------dance-single - ----------------
#NOTES:
     dance-single:
     :
     Easy:
     3:
     0.204,0.219,0.130,0.000,0.000:
0110
0000
0100
0010
,
0000
0010
0100
0010
,
1000
0000
0001
1000
,
0000
1000
0001
1000
,
0010
0000
0010
0110
,
0010
0000
1000
0000
,
0010
0010
0010
0000
,
0001
0000
0100
0000
,
0010
0000
1000
0010
,
1001
0000
0110
0000
,
1001
0000
0100
0100
,
0010
0000
0010
0001
,
0100
0000
0100
0000
,
0010
1000
0010
0000
,
1000
0010
1000
0000
,
0001
1000
0001
0000
,
0001
1000
0100
0000
,
0010
0001
0010
0000
,
0001
0010
0001
0000
,
0001
0100
1000
0000
,
1000
0010
0100
0000
,
1010
0000
0100
0000
,
0001
0000
0001
0100
,
0010
0000
1000
0000
,
0001
0000
0100
0010
,
1001
0000
0100
0000
,
0010
0000
1000
0010
,
0001
0000
0001
0000
,
0010
0000
0010
0100
,
1001
0000
0100
0000
,
0001
0100
1000
0000
,
0010
0000
0100
0000
,
1000
0100
0001
0000
,
0110
0000
1000
0000
,
0010
0010
0100
0000
,
0001
0000
0010
0000
,
1000
0001
0100
0000
,
1001
0000
0010
0000
,
0100
0000
0000
0001
,
1000
1000
1000
1000
,
0001
0000
0010
0000
,
0110
0000
0100
0000
,
0001
0000
0000
0001
,
1000
1000
1000
1000
,
0010
0000
0100
0000
,
1001
0000
0000
0000
;

//---------------dance-single - ----------------
#NOTES:
     dance-single:
     :
     Medium:
     5:
     0.362,0.340,0.335,0.000,0.000:
1010
0000
0000
0010
1000
0000
0100
0000
,
0010
0000
0000
0001
0001
0000
0100
0000
,
0010
0000
0000
0100
0010
0000
1000
0000
,
0001
0000
0000
0001
0010
0000
0101
0000
,
0011
0000
0000
0001
1000
0000
0110
0000
,
1001
0100
0010
0010
,
0001
0000
0010
0000
1000
0001
1000
0001
,
0010
1000
0100
0100
,
1000
0000
0010
0000
0100
0010
0001
0100
,
0010
0110
0101
0010
,
0011
0000
0100
0000
0001
0000
1000
1000
,
0010
0100
0001
0000
,
1000
0001
1000
0001
0010
0000
0101
0000
,
1001
0100
0110
1000
,
0010
1000
0100
0000
0010
1000
0001
0000
,
0110
1000
1001
0100
,
0010
0010
0010
0000
0001
0000
0100
0000
,
0101
0010
0011
1000
,
0001
1000
0010
0000
0100
0010
0100
0000
,
0110
1000
1010
0100
,
0001
1000
0001
1000
0010
0000
0100
0000
,
0001
0001
0001
0000
0100
0000
0010
0000
,
1000
1000
1000
0000
0100
0000
0010
0000
,
0001
0010
0001
0000
0100
0000
0001
0000
,
0010
1000
0100
0000
0001
0000
1000
0000
,
1010
0100
0001
0000
0010
0000
0100
0000
,
0001
0001
1000
0000
0010
0000
0100
0000
,
0001
0100
1000
0000
0100
0000
0010
0000
,
1000
0100
0001
0000
0001
0100
0001
0010
,
1000
1010
0100
1100
,
0010
0010
0010
0000
0100
0000
0001
0000
,
0011
0001
0101
0010
,
1000
0001
1000
0000
0001
0000
0010
0000
,
1010
0000
0101
0000
,
0010
0000
1000
0000
0001
1000
0001
0000
,
0011
0000
1001
0000
,
0100
0010
0001
0010
0001
0000
1000
0000
,
1001
0100
0001
1000
,
0010
0000
0100
0000
,
0001
1000
0001
0000
1000
0001
1000
0000
,
0010
0000
0100
0101
,
1001
0010
1000
0100
,
1000
0000
0010
0000
,
0001
1000
0001
0000
1000
0001
1000
0000
,
0010
0100
0001
1001
,
0110
0000
0000
0000
;

//---------------dance-single - ----------------
#NOTES:
     dance-single:
     :
     Hard:
     7:
     0.458,0.389,0.205,0.000,0.113: // measure 1
1000
0000
0010
0100
0001
0000
1000
0000
,  // measure 2
0010
0000
0100
0001
0010
0000
1000
0010
,  // measure 3
0100
0000
0001
1000
0001
0000
0100
0000
,  // measure 4
0010
0000
1000
1000
0001
0000
0010
0001
,  // measure 5
0100
0000
0000
0010
0100
0000
1001
0000
,  // measure 6
0101
0000
0010
0000
0001
0000
0100
0001
,  // measure 7
0100
0000
0010
0000
1000
0010
0100
0001
,  // measure 8
1000
0000
0010
0000
0100
0000
1000
0010
,  // measure 9
1000
0000
0100
0000
1000
0100
0010
0001
,  // measure 10
0100
0000
0000
0000
0101
0000
0000
0000
1010
0000
0000
0000
0100
0000
0000
0001
,  // measure 11
0000
0010
0100
0010
0001
0100
0010
1000
,  // measure 12
0001
0100
0000
0010
0000
1000
0000
0001
,  // measure 13
1001
0100
0000
0010
0100
0001
1000
0000
,  // measure 14
1000
0010
1000
0100
1000
0001
1000
0000
,  // measure 15
0001
1000
0001
0000
0010
0100
1001
0000
,  // measure 16
0010
0001
0100
0001
0010
0100
0001
1000
,  // measure 17
0010
0000
0100
0000
0001
1000
0010
0000
,  // measure 18
0100
0010
0100
0001
0100
0010
0100
1000
,  // measure 19
0010
0000
0100
0000
0001
1000
0101
0000
,  // measure 20
0010
1000
0100
1000
0010
0100
0001
0100
,  // measure 21
0010
0000
1000
0000
0001
0100
1001
0000
,  // measure 22
0010
0000
0000
0010
0000
0000
0001
0000
0000
1000
0000
0000
0010
0000
0000
0000
,  // measure 23
0100
0000
0000
1000
0000
0000
0100
0000
0000
0100
0000
0000
0010
0000
0101
0000
,  // measure 24
0010
0000
0000
0001
0000
0000
0100
0000
0000
0100
0000
0000
0001
0000
1000
0000
,  // measure 25
0010
0000
0000
0100
0000
0000
0001
0000
0000
0001
0000
0000
1000
0000
0110
0000
,  // measure 26
1000
0000
0000
0100
0000
0000
1000
0000
0000
1000
0000
0000
0010
0000
0100
0000
,  // measure 27
0001
0000
0000
0001
0000
0000
0010
0000
0000
0001
0000
0000
0100
0000
0101
0000
,  // measure 28
0010
0000
0000
1000
0000
0000
0010
0000
0000
0100
0000
0000
0001
0000
0001
0000
,  // measure 29
1000
0010
0100
0001
1000
0001
0100
0000
,  // measure 30
0100
0001
0010
0001
1000
0001
1000
0000
,  // measure 31
0100
1000
0010
0000
0100
0001
1010
0000
,  // measure 32
0100
0001
1000
0010
0100
1000
0010
0100
,  // measure 33
0001
1000
0010
0000
0001
1000
0101
0000
,  // measure 34
0010
1000
0100
1000
0010
0100
0001
1000
,  // measure 35
0001
1000
0001
0000
1000
0010
1001
0000
,  // measure 36
0010
0001
0100
0001
1000
0010
0100
0010
,  // measure 37
1000
0100
0001
0100
1000
0001
1000
0010
,  // measure 38
0100
0000
0000
0100
0000
0000
0001
0000
0000
1000
0000
0000
0010
0000
0100
0000
,  // measure 39
0001
0000
0000
0001
0000
0000
1000
0000
0010
0000
0100
0000
0001
0000
0000
0000
,  // measure 40
0101
0000
0011
0000
1000
0010
1000
0001
,  // measure 41
1000
0000
0010
0000
0100
0001
1000
0010
,  // measure 42
0100
0000
0000
0100
0000
0000
0001
0000
0000
1000
0000
0000
0010
0000
0100
0000
,  // measure 43
0001
0000
0000
0001
0000
0000
1000
0000
0010
0000
0100
0000
0001
0000
0000
0000
,  // measure 44
1010
0000
0101
0000
0010
0001
1000
0100
,  // measure 45
1000
0001
1000
0000
0010
0100
0001
1000
,  // measure 46
1001
0000
0000
0000
;
