#TITLE:HOLD MY HAND;
#SUBTITLE:;
#ARTIST:SOTA FUJIMORI;
#TITLETRANSLIT:;
#SUBTITLETRANSLIT:;
#ARTISTTRANSLIT:;
#CREDIT:;
#BANNER:HOLD MY HAND.png;
#BACKGROUND:HOLD MY HAND.bg.png;
#LYRICSPATH:;
#CDTITLE:;
#MUSIC:HOLD MY HAND.mp3;
#OFFSET:-6.450;
#SAMPLESTART:50.034;
#SAMPLELENGTH:12.000;
#SELECTABLE:YES;
#BPMS:0.000=154.010;
#STOPS:;
#BGCHANGES:;

//---------------dance-single - ----------------
#NOTES:
     dance-single:
     :
     Easy:
     2:
     0.217,0.259,0.144,0.000,0.000: // measure 1
0100
0100
0100
0000
,  // measure 2
0010
0010
0010
0000
,  // measure 3
1000
1000
1000
0000
,  // measure 4
0001
0001
0001
0000
,  // measure 5
1001
0000
0100
0000
,  // measure 6
0010
0010
0100
0000
,  // measure 7
1000
0000
0100
0000
,  // measure 8
1000
1000
1000
0000
,  // measure 9
1001
0000
0010
0000
,  // measure 10
0100
0001
0100
0000
,  // measure 11
0010
0000
0010
0000
,  // measure 12
0100
0010
0100
0000
,  // measure 13
0101
0000
0001
0000
,  // measure 14
0100
0001
0100
0000
,  // measure 15
0010
0010
0010
0000
,  // measure 16
1000
0000
0010
0000
,  // measure 17
0000
1001
0000
0100
,  // measure 18
0000
0010
0010
0000
,  // measure 19
0001
0000
0001
0000
,  // measure 20
0001
1000
0001
0000
,  // measure 21
1010
0000
0100
0000
,  // measure 22
0010
0000
0100
0000
,  // measure 23
0010
0010
0010
0000
,  // measure 24
0100
0100
0100
0000
,  // measure 25
0000
1001
0000
0100
,  // measure 26
0100
0000
0100
0000
,  // measure 27
1000
0000
0001
0000
,  // measure 28
1001
0000
0000
1001
,  // measure 29
1001
0000
0100
0000
,  // measure 30
0001
0100
0100
0000
,  // measure 31
0010
0000
1000
0000
,  // measure 32
1000
0100
0001
1001
,  // measure 33
1001
0000
0100
0000
,  // measure 34
0010
0010
0010
0000
,  // measure 35
1000
0000
0100
0000
,  // measure 36
1000
0010
1000
0000
,  // measure 37
1001
0000
0000
0000
,  // measure 38
0010
0000
0000
0000
,  // measure 39
1000
0000
0100
0000
,  // measure 40
1000
0000
0100
0000
,  // measure 41
0010
0010
0010
0000
,  // measure 42
0001
0000
0100
0000
,  // measure 43
0001
0001
0001
0000
,  // measure 44
0100
0000
0010
0000
,  // measure 45
0010
0000
1000
0000
,  // measure 46
0001
0000
0100
0000
,  // measure 47
0001
0001
0001
0000
,  // measure 48
0010
0000
0100
0000
,  // measure 49
1000
1000
1000
0000
,  // measure 50
0100
0000
1000
0000
,  // measure 51
0010
0000
0010
0000
,  // measure 52
0100
0000
0100
0000
,  // measure 53
1000
1000
1000
0000
,  // measure 54
0001
0000
0100
0000
,  // measure 55
1001
0000
0000
0010
,  // measure 56
0010
0000
0000
1001
;

//---------------dance-single - ----------------
#NOTES:
     dance-single:
     :
     Medium:
     4:
     0.323,0.403,0.227,0.000,0.000:
1000
1000
1000
0100
,
0001
0010
0001
0100
,
0010
0010
0010
1000
,
0100
0001
0100
0110
,
1001
0010
0001
0000
,
0001
1000
0010
0000
,
1000
0100
0001
0000
,
0010
0100
0010
0000
1000
0000
0001
0000
,
0010
0001
0001
0000
,
0100
0001
0010
0000
,
1000
0010
0001
0100
,
1000
0001
1000
0000
1000
0000
1000
0000
,
1001
0100
0001
0000
,
0010
1000
0010
0001
,
0100
0001
0001
0000
,
0010
1000
0010
0000
,
0110
0110
0000
0100
,
0010
0000
1000
0010
0000
0000
0000
0000
,
0010
0100
0010
0001
,
1000
0000
0001
0100
0000
0000
0000
0000
,
1001
0000
0001
0000
,
0010
0001
0100
0000
,
0010
1000
0100
0001
,
0010
0010
0100
0110
,
0000
1001
0100
0001
,
0010
0000
0100
0001
,
1000
0010
0000
0000
1000
0000
0001
0000
,
0100
0100
0010
1001
,
1001
0010
0001
0000
,
0001
1000
0001
0000
0010
0000
0100
0000
,
1001
0100
1000
0000
,
0010
1000
0100
0000
0001
0000
0110
0000
,
0110
0100
0001
0000
,
0001
0100
0001
0000
0010
0000
1000
0000
,
0001
0010
1000
0000
,
0010
0010
0010
0000
0100
0000
1001
0000
,
1001
0000
0000
0000
,
0100
0000
0000
0010
,
1000
0010
1000
0100
,
1000
0000
0001
0000
,
0001
0001
0001
0000
,
0010
0100
0010
0000
1000
0000
0000
0000
,
0001
0010
0001
0100
,
1000
0000
0010
1000
,
0001
0001
0001
0000
,
1000
0010
1000
0000
0001
0000
0000
0000
,
0110
0001
1000
0000
,
0010
1000
0100
0000
,
0001
0010
0001
0100
,
1000
0001
1000
0000
0100
0000
0010
0000
,
1010
0100
0110
0001
,
0011
1000
0001
1001
,
1001
0100
0010
1000
,
0001
1000
0001
1000
0001
0000
0000
0000
,
1001
0000
0000
0100
,
0010
0000
0000
0000
0000
0000
0010
0010
;

//---------------dance-single - ----------------
#NOTES:
     dance-single:
     :
     Hard:
     8:
     0.564,0.548,0.340,0.000,0.093:
0010
0001
0010
0001
1000
0000
0101
0000
,
0010
1000
0010
0100
0001
0000
0101
0000
,
0010
0100
0010
0100
0001
0000
0110
0000
,
0001
0100
1000
0100
0010
0100
0010
1000
,
1001
0000
0100
0000
0010
0001
0100
0000
,
0010
1000
0010
1000
0100
0000
0001
1000
,
0010
0001
1000
0000
0001
1000
0100
0000
,
0010
0100
0001
0100
0010
1000
0001
0000
,
1001
0000
0100
0001
0010
0000
1000
0010
,
1000
0001
1000
0000
0001
1000
0001
0100
,
0001
1000
0010
0000
0100
0001
1000
0010
,
0000
0100
0001
1000
0010
0100
0001
0000
,
1001
0101
0010
1000
,
0001
0100
0000
0000
0001
0000
0000
0000
0010
0100
0000
0000
0010
0000
0000
0000
,
1000
0010
1000
0000
0001
0000
0101
0000
,
0010
1000
0100
0000
0010
0100
0010
0001
,
0000
0000
1001
0000
0010
0001
0100
0000
,
0010
0000
0000
1000
0000
0000
0010
0000
0000
0000
1000
0000
0010
0000
0100
0000
,
0001
0011
0011
0110
,
0010
0000
0000
0100
0000
0000
0010
0000
0000
0000
0000
0000
0110
0000
0000
0000
,
1001
0000
0100
0001
0010
0000
1000
0010
,
0001
0000
0010
1000
0100
1000
0001
0000
,
0010
1000
0010
0000
0100
0001
0100
0000
,
0010
1000
0001
0100
0001
0010
1000
0001
,
0000
1001
0101
0011
,
1000
0010
1000
0001
1000
0000
0100
1000
,
0010
1010
0000
0100
0101
0000
0010
1000
,
0000
0001
0100
0001
1000
0001
1001
0000
,
1001
0101
0011
1000
,
0010
1000
0000
0000
0010
0000
0000
0000
0100
0001
0000
0000
0100
0000
0000
0000
,
0101
0000
0010
1000
0010
0100
0001
1000
,
0010
1000
0000
0000
0010
0000
0000
0000
0010
0100
0000
0000
0001
0000
0000
0000
,
1001
0101
0011
1000
,
0010
0001
0000
0000
0010
0000
0000
0000
0001
0100
0000
0000
0001
0000
0000
0000
,
0010
0100
0010
1000
0001
1000
0010
0000
,
1000
0010
0000
0000
1000
0000
0000
0000
0001
1000
0000
0000
1001
0000
0000
0000
,
0110
0000
0100
0000
0100
0000
0100
0010
,
0100
0000
0100
0000
0100
0001
0001
0000
,
1000
0010
1000
0001
1000
0100
1000
0000
,
0010
1000
0001
0000
0100
0001
1000
0000
,
0010
0100
0010
0001
1000
0010
0100
0000
,
0010
0001
0100
0000
0010
0001
0100
0001
,
0010
1000
0000
0100
1000
0000
0010
1000
,
0001
1000
0001
0100
0001
1000
0001
0000
,
0010
0100
0010
0100
0000
0001
1000
0001
,
0000
0000
0010
0000
0100
0000
0010
0000
1000
0001
1000
0000
0010
0000
0000
0000
,
1000
0010
1000
0100
0001
1000
0001
0100
,
0001
1000
0010
0000
0001
1000
0100
0000
,
0010
1000
0100
0010
0100
0001
1000
0010
,
0001
1000
0001
0000
1000
0001
1000
0010
,
1000
1010
0000
0100
0001
0000
0010
0110
,
0000
1001
0000
0100
0001
1000
0010
0000
,
0010
0001
0100
0001
1000
0010
0100
0001
,
1000
0010
1000
0000
0001
0000
0100
0000
0010
0100
0010
0000
1000
0000
0001
0000
,
1000
0010
0000
0000
0100
0000
0001
0000
0010
0000
0010
0000
0010
0000
1000
0000
,
0010
0001
0000
0000
0001
0000
0100
0000
0001
1000
0001
0000
0100
0000
1001
0000
;
