#TITLE:GOOD FOR ME;
#SUBTITLE:;
#ARTIST:ABOVE & BEYOND FEAT. ZOE JOHNSTON;
#TITLETRANSLIT:;
#SUBTITLETRANSLIT:;
#ARTISTTRANSLIT:;
#CREDIT:;
#BANNER:GOOD FOR ME.png;
#BACKGROUND:GOOD FOR ME.bg.png;
#LYRICSPATH:;
#CDTITLE:;
#MUSIC:GOOD FOR ME.mp3;
#OFFSET:-8.460;
#SAMPLESTART:69.300;
#SAMPLELENGTH:12.000;
#SELECTABLE:YES;
#BPMS:0.000=137.990;
#STOPS:;
#BGCHANGES:;

//---------------dance-single - ----------------
#NOTES:
     dance-single:
     :
     Easy:
     4:
     0.239,0.246,0.132,0.000,0.000:
1000
1000
1000
0100
,
0010
0010
0001
0010
,
0100
0100
0100
0001
,
1000
0010
1000
0100
,
0101
0100
0001
0100
,
0010
0000
0010
1000
,
0100
0000
0100
1000
,
0010
0000
0010
0001
,
0100
0100
0001
0100
,
0001
0000
0001
1000
,
0010
0000
0010
0010
,
0001
0000
0100
0001
,
1001
0010
0100
0001
,
1000
0000
1000
0001
,
0010
0000
0010
0010
,
1000
0000
1000
0010
,
1000
0000
0100
0100
,
1000
0000
0100
0010
,
0100
0000
0100
0001
,
1000
0000
1000
1010
,
1001
0000
0000
0100
,
0100
0000
0000
0001
,
1000
0000
0010
0001
,
1000
0000
0100
1000
,
1010
0000
0000
0010
,
0010
0000
0010
0100
,
0001
0000
0010
0001
,
1000
0100
0010
0100
,
1001
0000
0000
0010
,
0001
0000
0000
0001
,
0100
0000
0001
1000
,
0010
0000
0100
0001
,
1001
0000
0000
0010
,
1000
0000
1000
0010
,
0100
0000
0010
0000
,
1001
0000
0000
0010
,
0100
0001
0100
0001
,
0010
1000
0100
0001
,
0010
1000
0010
0000
,
0100
0001
0100
0000
,
1010
0100
0001
0100
,
0001
0001
0001
0100
,
0010
1000
0100
0000
,
1000
0010
0100
0101
,
1001
0010
1000
0100
,
1000
0000
0001
0000
,
0100
0001
1000
0000
,
0010
1000
0001
0000
,
1001
0010
1000
0100
,
1000
0000
0010
0100
,
0001
0000
0001
1000
,
0010
0000
0100
0110
,
1001
0000
0000
0000
;

//---------------dance-single - ----------------
#NOTES:
     dance-single:
     :
     Medium:
     6:
     0.356,0.344,0.321,0.000,0.000:
1010
0000
0100
0000
0001
0000
0010
0001
,
0000
0000
0000
0010
0000
0000
0000
0100
,
0001
1000
0010
1010
,
0100
0001
0100
0000
0001
0000
0011
0000
,
0101
0000
1000
0010
0000
0000
0100
0000
,
0001
0000
0010
1000
0000
0000
0110
0000
,
1000
0000
1000
0010
0000
0000
0100
0000
,
0001
0000
0010
0001
0000
0000
0101
0000
,
0010
0100
0000
0010
0000
0000
1001
0000
,
0010
0100
0000
0001
0000
0000
1001
0000
,
0010
1000
0000
0010
1000
0000
0100
0000
,
0010
0100
0000
0001
1000
0000
1001
0000
,
0101
0000
0010
1000
0001
0000
0100
0000
,
0010
0000
1000
0010
0000
0000
0101
0000
,
0010
0000
1000
0100
1000
0000
0010
0000
,
0100
0000
0001
0010
0000
0000
0101
0000
,
0010
0000
0100
0001
0010
0000
1000
0000
,
0010
0000
0100
0010
0000
0000
0110
0000
,
1000
0000
0001
1000
0100
0000
0101
0000
,
0010
1000
0000
0001
1000
0000
1001
0000
,
0011
0000
0001
0000
1000
0000
0010
1000
,
0010
0100
0001
1000
,
0010
0000
0100
0001
0000
0000
0010
0000
,
1010
0000
0100
0010
0000
0000
1000
0000
,
0001
0000
0010
0001
0010
0000
1000
0000
,
0001
0000
0100
0010
0100
0000
1000
0000
,
0010
0000
0100
0001
1000
0000
0010
0000
,
0100
0101
0010
0011
,
1100
0000
0010
0010
0000
0000
0100
0000
,
0001
0000
0010
0010
0000
0000
1000
0000
,
0001
0000
0010
0001
0000
0100
0001
0000
,
0010
0000
1000
0010
0000
1000
0100
0000
,
0010
0000
1000
0010
0000
0000
0101
0000
,
1000
0000
0010
0100
0000
0000
1001
0000
,
0010
0000
1000
0010
0000
0000
0100
0000
,
1001
0100
0000
0000
0010
0000
0000
0000
,
1000
0010
0001
0000
0100
0000
0010
0010
,
0000
0000
0000
0100
0000
0000
0000
1001
,
0000
0010
0001
0101
,
0010
1000
0100
0000
0001
0010
0000
1000
,
0010
0000
0101
0000
0010
1000
0010
0100
,
0000
0000
0010
0010
0000
0000
0000
1001
,
0000
0000
0010
0000
1000
0010
0001
0000
,
0100
0001
0010
0000
0101
0000
0011
0000
,
1001
0000
0100
0000
0010
1000
0010
0000
,
0101
0000
1000
0000
0010
1000
0100
0000
,
0010
0000
0001
0010
0000
0001
0010
0000
,
0100
0000
0001
0100
0000
0001
0100
0000
,
1001
0000
0010
1000
0001
0000
0100
0000
,
1010
0000
0100
0001
1000
0000
0010
0000
,
0100
0000
0001
0010
0000
0000
0001
0000
,
0100
0000
0010
1000
0000
0000
0100
0000
,
1001
0000
0000
0000
;

//---------------dance-single - ----------------
#NOTES:
     dance-single:
     :
     Hard:
     7:
     0.420,0.418,0.321,0.000,0.000: // measure 1
1010
0000
0100
0000
0010
1000
0010
0100
,  // measure 2
0000
0000
0010
0010
0000
0100
0000
1001
,  // measure 3
0010
0000
0001
0000
0010
0001
0100
0000
,  // measure 4
0010
1000
0010
0100
0001
0000
1000
0000
,  // measure 5
1010
0000
1000
1000
0000
0010
1000
0000
,  // measure 6
0100
0000
0001
0100
1000
0000
0101
0000
,  // measure 7
0010
0000
1000
0010
0000
0100
0010
0000
,  // measure 8
1000
0000
0001
0100
1000
0000
1010
0000
,  // measure 9
0110
0000
0100
0001
0000
0100
0010
0000
,  // measure 10
1000
0010
0001
0000
0010
0000
0101
0000
,  // measure 11
0010
0000
0100
0001
0000
0100
0010
0000
,  // measure 12
1000
0010
1000
0000
0100
0000
0101
0000
,  // measure 13
1010
0000
0100
0010
0000
0100
0001
0000
,  // measure 14
0010
0000
1000
0010
0000
1000
0100
0000
,  // measure 15
0001
0000
0100
0010
0000
0100
0010
0000
,  // measure 16
1000
0010
1000
0000
0100
0000
0101
0000
,  // measure 17
1010
0000
0100
0001
0000
0100
0010
0000
,  // measure 18
1000
0010
1000
0000
0100
0000
0001
0000
,  // measure 19
0010
0001
0100
0000
0001
0000
0101
0000
,  // measure 20
0011
0000
1100
0000
1000
0010
0100
0001
,  // measure 21
0100
0000
0010
0010
0000
0010
0010
0000
,  // measure 22
1000
0000
0001
0001
0000
0001
0001
0000
,  // measure 23
1000
0010
0000
0100
0000
0000
0101
0000
,  // measure 24
0010
1000
0000
0100
0000
0000
0101
0000
,  // measure 25
0110
0000
0010
0010
0000
0010
0010
0000
,  // measure 26
1000
0000
1000
1000
0000
1000
1000
0000
,  // measure 27
0010
0000
0000
0100
0001
0000
0010
0000
,  // measure 28
0001
0011
1000
1100
,  // measure 29
0010
0000
0000
0010
0100
0000
0001
0000
,  // measure 30
0010
0100
0000
0001
1000
0000
1010
0000
,  // measure 31
0100
0000
0000
0100
0001
0000
0010
0000
,  // measure 32
0100
0000
0000
0001
0000
0000
1001
0000
,  // measure 33
0011
0000
0001
0001
0000
0001
0001
0000
,  // measure 34
1000
0000
0000
0010
1000
0000
0101
0000
,  // measure 35
0010
1000
0100
0000
0010
0001
0100
0000
,  // measure 36
1001
0100
0000
0001
0000
1000
0000
0010
,  // measure 37
0001
0010
0001
0100
0010
0000
1000
0010
,  // measure 38
0000
0100
0001
0100
0000
0010
0000
1001
,  // measure 39
0100
0000
0010
0000
1000
0010
0100
0000
,  // measure 40
0001
1000
0000
0010
0100
0010
1000
0000
,  // measure 41
0011
0000
0110
0000
0010
0100
0001
0010
,  // measure 42
0000
0010
1000
0100
0000
1000
0000
1001
,  // measure 43
0010
0000
0001
0100
0001
0010
0001
0000
,  // measure 44
1000
0001
1000
0100
0001
1000
0001
0100
,  // measure 45
0010
1000
0010
1000
0100
1000
0001
0000
,  // measure 46
0010
0001
0100
0010
1000
0001
1001
0000
,  // measure 47
0010
1000
0100
1000
0100
0010
0100
0000
,  // measure 48
0001
1000
0010
0100
0101
0000
1010
0000
,  // measure 49
0101
0010
0001
0010
0100
0001
1000
0000
,  // measure 50
0010
0100
0010
1000
0001
0100
0010
0000
,  // measure 51
1000
0010
0100
0001
0000
1000
0010
0000
,  // measure 52
0100
0001
0100
0001
1000
0010
1010
0000
,  // measure 53
1001
0000
0000
0000
;
