#TITLE:GET WILD;
#SUBTITLE:;
#ARTIST:NMR;
#TITLETRANSLIT:;
#SUBTITLETRANSLIT:;
#ARTISTTRANSLIT:;
#CREDIT:;
#BANNER:GET WILD.png;
#BACKGROUND:GET WILD.bg.png;
#LYRICSPATH:;
#CDTITLE:;
#MUSIC:GET WILD.mp3;
#OFFSET:-6.580;
#SAMPLESTART:75.080;
#SAMPLELENGTH:12.000;
#SELECTABLE:YES;
#BPMS:0.000=149.950;
#STOPS:;
#BGCHANGES:;

//---------------dance-single - ----------------
#NOTES:
     dance-single:
     :
     Easy:
     3:
     0.228,0.226,0.125,0.000,0.000:
1000
0001
1000
0000
,
0100
0100
0001
0000
,
0010
0001
0010
0000
,
1000
0010
1000
0000
,
1000
0000
0000
1001
,
0010
0000
0001
0000
,
0100
0001
0001
0000
,
0010
1000
0100
0000
,
0001
1000
0000
1001
,
1000
0000
0010
0000
,
0100
0010
0010
0000
,
0100
0001
1000
0000
,
0010
0000
0100
0000
,
1001
0000
0100
0000
,
0110
0000
0001
0000
,
1000
0010
1000
0000
,
0100
0000
0001
0000
,
1001
0000
0010
0000
,
1010
0000
0100
0000
,
0110
0010
0000
0100
,
0001
0001
0000
0001
,
0010
0000
1000
0000
,
0001
1000
0001
0000
,
1000
0010
0010
0000
,
0100
0000
0001
0000
,
0010
1000
0100
0000
,
0001
1000
0010
0000
,
0110
0001
1000
0000
,
0010
0000
0100
0000
,
0001
0010
0001
0000
,
0100
1000
0100
0000
,
1000
1010
0000
0100
,
1000
0000
0010
0000
,
0100
0001
0000
0001
,
1000
0000
0001
0000
,
1001
0010
0100
0000
,
0010
0000
1000
0000
,
0001
0001
0100
0000
,
0010
0010
1000
0000
,
1000
1000
1000
0000
,
0001
0000
0100
0000
,
0001
0001
0001
0000
,
0010
0100
0010
0000
,
1001
0100
0001
0000
,
0010
0000
0100
0000
,
0001
0001
0001
0000
,
1000
0000
0100
0000
,
0010
0000
1001
0000
,
0100
0010
0100
0000
,
1000
0000
0010
0000
,
1000
0100
0001
0000
,
0010
0000
0100
0000
,
0001
0000
1000
0000
,
0010
0001
0010
0000
,
1000
0100
1000
0000
,
0010
0000
0100
0000
,
0001
0000
1000
0000
,
0010
0100
0010
0000
,
0100
0000
1001
0100
;

//---------------dance-single - ----------------
#NOTES:
     dance-single:
     :
     Medium:
     4:
     0.315,0.339,0.192,0.000,0.000:
1000
0001
0001
0010
,
1000
0001
0001
0100
,
0001
0100
0001
0010
,
1000
1000
0001
0010
,
0011
0000
1000
0101
,
1001
0010
0010
1000
,
0100
1000
0010
0100
,
0001
0010
1000
0100
,
0001
0000
0000
0000
1000
0001
1000
0000
,
1010
0100
1000
0010
,
0001
0100
0100
0100
,
0001
0000
1000
0000
,
0100
0000
0010
0000
0010
1000
0001
0000
,
0101
0000
0001
0000
,
0101
0000
0010
0000
,
1000
0000
1000
0000
0001
1000
0001
0000
,
0010
0000
0100
0000
,
1010
0100
0000
1000
,
1010
0100
0000
0001
,
0101
1000
0000
0100
,
1000
0010
0001
0100
,
0001
0001
0010
0000
,
1000
0001
1000
0001
0000
0000
0100
0000
,
0110
1000
0110
0001
,
0010
1000
0010
0000
,
0100
0001
1000
0010
,
1000
0001
1000
0000
0100
0000
0000
0000
,
0011
0100
0101
1000
,
0010
1000
0001
0000
,
1000
1000
0001
0100
,
0010
0010
0010
0000
0100
0000
0000
0000
,
0110
1000
0101
0010
,
1000
0010
0000
0010
,
1000
0001
0100
0001
,
1000
0001
1000
0000
0010
0000
0000
0000
,
0110
1000
1001
0100
,
0010
1000
0100
0000
,
0001
0010
0001
0100
,
1000
0001
1000
0000
0100
0000
0000
0000
,
1000
0010
1000
0000
,
0001
0010
0001
0000
,
0010
0000
0001
0000
,
1000
0001
1000
0001
1000
0000
0010
0000
,
0001
1000
1100
0000
,
0010
0001
0100
0000
,
0010
1000
0100
1000
,
0001
0001
0001
0000
0100
0000
0000
0000
,
0010
0100
0110
0000
,
0100
0001
0010
0000
,
0001
0010
0001
0100
,
1000
0100
0001
0000
0010
0000
0100
0000
,
1000
0010
1000
0000
,
0100
0001
0100
0000
,
0010
0000
0100
0000
,
0001
1000
0001
0000
0100
0000
0000
0000
,
0010
0001
0010
0000
,
0001
0000
1000
0000
,
0010
0000
0010
0001
,
0100
0000
0000
0010
0010
0000
1001
0000
;

//---------------dance-single - ----------------
#NOTES:
     dance-single:
     :
     Hard:
     7:
     0.521,0.509,0.337,0.000,0.072: // measure 1
1000
0100
0001
0000
0010
0000
1000
0010
,  // measure 2
0001
0100
1000
0000
0010
0000
0100
0001
,  // measure 3
0010
0000
0001
0000
0010
0000
0000
0000
0100
0000
0000
0001
0000
0000
0100
0000
,  // measure 4
0010
0000
1000
0000
1000
0000
0000
0000
0100
0000
0000
0100
0000
0000
0001
0000
,  // measure 5
0010
0000
0000
0010
0000
0000
0100
0000
0001
0000
0000
0000
0101
0000
0000
0000
,  // measure 6
0010
1000
0010
1000
0100
0000
1000
1000
,  // measure 7
0001
0000
0001
1000
0010
0000
0110
1000
,  // measure 8
0001
0000
0100
0000
0010
0001
0100
0010
,  // measure 9
1000
0000
0100
1000
0000
0000
0100
1000
,  // measure 10
0010
1000
0010
1000
0001
0000
0100
0001
,  // measure 11
0010
0000
0010
0100
0100
0000
1000
0000
,  // measure 12
0001
0001
0001
0000
1000
1000
1000
0100
,  // measure 13
0010
0011
1100
0110
,  // measure 14
1001
0000
0000
0100
0000
0000
0000
0000
0010
0000
0000
0010
0000
0000
0000
0000
,  // measure 15
0100
0000
0000
0100
0000
0000
0001
0000
0100
0000
0000
0000
0000
0000
0000
0000
,  // measure 16
0010
0010
1000
0100
0001
0100
0010
0000
,  // measure 17
0010
0000
0000
0010
0000
0000
0000
0000
0100
0000
0000
0000
0001
0000
0100
0000
,  // measure 18
1000
0101
1000
0101
,  // measure 19
0010
0000
1010
0000
0100
0000
0110
0001
,  // measure 20
1000
0000
0100
0000
0001
0000
1000
0010
,  // measure 21
0100
0010
0100
0001
1000
0001
1000
0000
,  // measure 22
1001
0100
0110
0000
,  // measure 23
0010
1000
0100
0001
0010
0001
0000
0100
,  // measure 24
0001
0010
0001
0100
0001
1000
0001
0000
,  // measure 25
0101
0000
0010
0010
1000
0000
0100
0000
,  // measure 26
0010
1000
0010
0100
0001
1000
0001
0000
,  // measure 27
0100
0000
0010
1000
0100
0000
0101
0000
,  // measure 28
0011
1000
0001
0100
0001
0100
1000
0000
,  // measure 29
0010
0000
1000
1000
0001
0000
0101
0000
,  // measure 30
0010
1000
0010
0100
0001
1000
0001
0000
,  // measure 31
0100
0000
0010
1000
0100
0000
0001
1000
,  // measure 32
0010
0011
0100
0101
,  // measure 33
1000
1010
0100
1100
,  // measure 34
0010
0100
0001
1000
0010
0010
0100
0000
,  // measure 35
1000
1000
0001
0100
0001
0000
0010
0000
,  // measure 36
1010
0100
0001
0100
1000
0010
1000
0000
,  // measure 37
0001
1000
0001
0010
0100
0000
0001
0000
,  // measure 38
1000
0010
0010
1000
0100
0100
1000
0000
,  // measure 39
0001
0000
0000
1000
0000
0000
0010
0000
0100
0000
0000
0000
0101
0000
0000
0000
,  // measure 40
0010
0100
0010
1000
0010
0000
0100
0000
,  // measure 41
0001
0010
0001
0100
0010
0000
1000
0100
,  // measure 42
0001
1000
0001
0100
1000
0001
1000
0000
,  // measure 43
0010
0100
0000
0010
0100
0000
0010
0100
0000
0010
0100
0000
0001
0000
1000
0000
,  // measure 44
0010
1000
0010
1000
0100
0000
1010
0000
,  // measure 45
0100
0000
0000
0100
0000
0000
0001
0000
0010
0000
0000
0000
0011
0000
0000
0000
,  // measure 46
1000
0001
1000
0100
0010
1000
0001
0000
,  // measure 47
0100
0000
0000
0100
0000
0000
0000
0000
0110
0000
0000
0000
1001
0000
0000
0000
,  // measure 48
1010
0100
1000
0001
1000
0001
1000
0000
,  // measure 49
0010
0001
0010
0100
0001
0000
0101
0000
,  // measure 50
0010
1000
0010
0100
0001
1000
0010
0000
,  // measure 51
1000
0010
0010
0000
0001
0100
0100
0000
,  // measure 52
0101
0011
1000
1001
,  // measure 53
0010
1000
0010
0100
0001
0000
1000
0000
,  // measure 54
0010
1000
0100
0001
0010
0001
0100
0000
,  // measure 55
0001
1000
0010
0000
0001
0000
1000
0000
,  // measure 56
1010
0101
1001
0100
,  // measure 57
0001
0010
0001
0010
0001
0000
0100
0000
,  // measure 58
0010
1000
0010
0100
0001
1000
0001
0000
,  // measure 59
0100
0000
0000
0100
0000
0000
0001
0000
1000
0000
0000
0000
1001
0000
0000
0000
;
