#TITLE:FREE WOMAN (LONG VER.);
#SUBTITLE:-RINA SAWAYAMA AND CLARENCE CLARITY REMIX-;
#ARTIST:LADY GAGA FEAT. RINA SAWAYAMA;
#TITLETRANSLIT:;
#SUBTITLETRANSLIT:;
#ARTISTTRANSLIT:;
#CREDIT:;
#BANNER:FREE WOMAN (RINA SAWAYAMA AND CLARENCE CLARITY REMIX) (LONG VER.).png.png;
#BACKGROUND:FREE WOMAN (RINA SAWAYAMA AND CLARENCE CLARITY REMIX) (LONG VER.).bg.png;
#LYRICSPATH:;
#CDTITLE:;
#MUSIC:FREE WOMAN (RINA SAWAYAMA AND CLARENCE CLARITY REMIX).mp3;
#OFFSET:-9.240;
#SAMPLESTART:81.460;
#SAMPLELENGTH:12.000;
#SELECTABLE:YES;
#BPMS:0.000=119.010;
#STOPS:;
#BGCHANGES:;

//---------------dance-single - ----------------
#NOTES:
     dance-single:
     :
     Easy:
     3:
     0.178,0.196,0.136,0.000,0.000:
1000
0000
0000
0000
,
0100
0000
0010
0000
,
1001
0000
0000
0000
,
0100
0000
0000
0000
,
0010
0000
0010
0010
,
0010
0000
0010
0010
,
0100
0000
0100
0100
,
0100
0000
0100
0100
,
1000
0000
1000
1000
,
0001
0000
0001
1000
,
0001
0000
1000
1000
,
1000
0000
1000
0001
,
1010
0000
0100
1000
,
0010
0000
0100
0001
,
0010
0000
0010
0001
,
0010
0000
0100
0001
,
0010
0000
0010
0010
,
0100
0000
0100
0001
,
0010
0000
1000
0010
,
0001
0000
0100
0110
,
1001
0000
0100
0000
,
0000
0010
0001
0000
,
0001
0000
0100
0000
,
0010
0100
0100
0000
,
0101
1000
0010
0000
,
0000
0100
0001
0000
,
0001
0010
0100
0000
,
1000
0000
1010
0100
,
0001
0000
0100
0000
,
0010
0100
0010
0000
,
1000
0000
0100
0000
,
1000
0100
0001
0000
,
0001
0000
0010
0000
,
0010
0010
0001
0000
,
0010
0000
1000
0000
,
0001
1000
0001
0000
,
1001
0000
0100
0000
,
0010
0000
1000
0000
,
0100
0001
0010
0000
,
0010
0100
0010
0000
,
1001
0000
0100
0000
,
0010
1001
0100
0000
,
0010
0000
1000
0000
,
1000
0010
0001
0010
,
0001
0000
0101
0000
,
0010
0000
1010
0000
,
0100
0001
1000
0000
,
1000
0010
0001
0000
,
1000
0000
1010
0000
,
0100
0000
0110
0000
,
0100
0001
0010
0000
,
0010
0100
0010
0000
,
1000
0000
1000
0100
,
0010
0000
0010
0100
,
0010
0000
0010
0010
,
0001
0000
0001
0100
,
0100
0000
0100
0001
,
0010
0000
0010
1000
,
0010
0000
0100
0000
,
0001
0000
1000
1001
,
0010
0000
0100
0000
,
0000
1010
0100
0000
,
0001
0100
0001
0000
,
0010
0000
0100
0000
,
0011
0000
0100
0000
,
0000
0101
0100
0000
,
0010
0100
1000
0000
,
1000
0100
0001
0000
,
1001
0000
0100
0000
,
0001
0001
0001
0000
,
0010
0000
0100
0000
,
1000
1000
1000
0000
,
0100
0000
0001
0000
,
1000
0010
1000
0000
,
0100
0000
1000
0000
,
0010
0001
0001
0000
,
0101
0000
0001
0000
,
0100
0000
0000
1000
,
1001
0000
0100
0000
,
0010
0000
0000
0010
,
1010
0000
0101
0000
,
1001
0000
0001
0100
,
0100
0000
0010
0000
,
1000
0000
0010
0110
,
1001
0000
0010
0000
,
0001
0010
0100
0000
,
0010
0000
1000
0000
,
1000
0100
0001
0000
,
0101
0000
0010
0000
,
0010
0100
0001
0000
,
0010
0000
0100
0000
,
0001
0000
1000
1001
,
0010
0000
1000
0000
,
1000
0010
1000
0000
,
0101
0000
0001
0000
,
0010
0100
1000
0000
,
1001
0000
0100
0000
,
0001
0010
0001
0000
,
0101
0000
0100
0000
,
0010
0100
0010
0000
,
1001
0000
0100
0000
,
0001
0100
1000
0000
,
1001
0000
0000
0000
;

//---------------dance-single - ----------------
#NOTES:
     dance-single:
     :
     Medium:
     5:
     0.269,0.283,0.158,0.000,0.000:
0011
0000
0000
1000
,
1100
0000
0101
0000
,
1001
0000
0000
0000
,
0110
0000
0000
0000
0100
0001
0010
0000
,
1001
0100
0001
0001
,
0010
1000
0100
0100
,
0001
0010
0001
0100
,
1000
0000
0010
0000
1000
0010
0001
0000
,
0101
0010
1000
0100
,
0010
0001
0100
0100
,
0001
0100
1000
0100
,
0010
0000
0001
0000
0100
0001
0001
0000
,
0011
0100
0001
0001
,
0010
0100
0001
0001
,
1000
0010
0100
0010
,
0001
0000
0100
0000
0001
0100
0001
0000
,
1010
0100
0001
0010
,
0100
0010
0100
0100
,
0001
0010
0100
0010
,
1000
0000
0001
0000
0001
0100
1000
0000
,
0001
0010
0100
1001
,
0000
0010
0100
0000
0010
0000
0001
0000
,
0001
0001
0100
0001
,
0010
0000
1000
0000
0100
0010
0000
0000
,
0100
0010
1000
1001
,
0000
0001
1000
0000
0100
0000
0010
0000
,
0010
0010
0001
0010
,
1000
0000
0100
0000
0001
0100
1000
0000
,
1001
0010
1000
0010
,
0001
0100
0001
0000
,
0010
0100
0001
1000
,
0010
0010
0100
0000
,
0101
0010
1000
0010
,
0001
0100
1000
0100
,
0001
0001
1000
1000
,
0001
1000
0001
1000
0001
0000
0000
0000
,
1001
0010
0100
0001
,
0010
0010
0100
0001
,
1000
1000
0100
0001
,
0010
0000
0100
0000
0001
0100
0001
0000
,
0100
0010
1000
0001
,
1000
0001
1000
0000
0010
0000
0101
0000
,
0001
0010
0001
0100
,
0001
1000
0001
1000
0001
0000
0000
0000
,
1010
0100
0001
0100
,
0010
1000
0100
1000
,
0010
0001
0100
1000
,
0010
0000
0001
0000
0100
0010
0100
0000
,
0011
0001
0100
0001
,
1000
0010
1000
0100
,
0001
0100
1000
0010
,
0010
0000
1000
0000
0010
0001
0010
0000
,
0110
0010
0001
0100
,
0001
1000
0100
1000
,
0010
0100
0100
0010
,
0010
0000
0001
0000
1000
0100
0001
0000
,
0011
0001
0100
1000
,
0010
0100
0001
0010
,
0010
0100
0001
1000
,
0010
0010
0100
0110
,
1001
0000
0100
0000
,
0010
0100
0010
0000
0100
0000
0000
0000
,
0010
0000
0001
0000
,
1000
0000
1001
0000
0010
0100
0000
0000
,
1010
0000
0100
0000
,
0001
1000
0001
0000
0100
0000
0000
0000
,
0010
0000
0001
0000
,
0101
0000
0010
0000
1000
0001
0100
0000
,
1001
0010
1000
0010
,
0100
0100
0100
0000
,
0010
0001
0010
1000
,
0100
0100
0100
0000
,
1010
0100
0001
0100
,
0010
0010
0001
0100
,
0001
0010
1000
0010
,
0100
0010
0100
0010
0100
0000
0000
0000
,
1001
0100
0001
0100
,
0010
1000
0010
0000
,
0100
1000
0100
0001
,
0010
0001
0110
0000
,
1000
0001
1000
0000
0001
1000
0001
0000
,
1001
0100
0000
0000
0010
0000
1000
0000
,
0100
0100
1000
0010
,
0100
0001
0100
0000
0001
0000
0010
0000
,
1001
0010
1000
0100
,
0001
0001
0010
0000
,
0010
0001
0100
1000
,
0010
0000
1000
0000
0010
0001
0010
0000
,
0110
1000
0001
0100
,
0001
0001
0010
0100
,
1000
0001
0100
0001
,
1000
0010
1000
0000
0100
0001
0100
0000
,
0101
0001
1000
0010
,
0010
0001
0100
0000
,
1010
0100
0001
0100
,
1000
0010
0001
0000
,
0011
0100
0010
0100
,
0001
1000
0010
0000
,
0101
1000
0010
0100
,
0001
1000
0001
0000
1000
0001
1000
0000
,
1001
0100
0001
0100
,
0010
1000
0100
0000
,
1001
0000
0000
0000
;

//---------------dance-single - Copied from ----------------
#NOTES:
     dance-single:
     Copied from:
     Hard:
     8:
     0.396,0.391,0.286,0.000,0.011: // measure 1
1001
0000
0000
0000
,  // measure 2
0101
0000
0011
0000
,  // measure 3
1001
0000
0000
0000
,  // measure 4
0100
0000
0000
0000
0001
0100
1000
0000
,  // measure 5
1010
0000
1000
0000
1000
0100
0001
0000
,  // measure 6
0101
0000
0100
0000
0001
0010
1000
0000
,  // measure 7
0100
1000
0010
0000
0100
0000
0001
0000
,  // measure 8
0010
0001
0100
0000
0010
0000
0110
0000
,  // measure 9
1000
0001
0100
0000
1000
0000
0101
0000
,  // measure 10
0010
1000
0100
0000
0010
0000
0011
0000
,  // measure 11
0100
0001
0010
0000
0100
0000
0001
0000
,  // measure 12
0100
1000
0010
0000
0100
0000
0110
0000
,  // measure 13
0010
0100
1000
0000
0010
0000
0100
0001
,  // measure 14
0001
0000
0100
1000
1000
0000
0010
0100
,  // measure 15
0000
0001
0000
1000
0000
0010
0100
0001
,  // measure 16
1000
0010
0000
0100
0000
0001
0000
0010
,  // measure 17
0001
0010
0001
0000
0100
0000
0101
0000
,  // measure 18
0010
1000
0100
0000
0001
0000
0110
0000
,  // measure 19
1000
0010
0010
0000
0100
0000
0001
0000
,  // measure 20
0100
0001
0001
0000
1000
0000
1001
0000
,  // measure 21
0010
1000
0001
0100
0100
0010
1000
0001
,  // measure 22
0000
0000
0101
0000
0010
0001
0001
0000
,  // measure 23
0100
0001
1000
0010
0100
0001
1000
0010
,  // measure 24
0000
0100
0001
0000
0100
0110
0000
0000
,  // measure 25
1000
1000
0001
0100
0010
0010
1000
0001
,  // measure 26
0000
1000
0010
0000
0100
0001
0100
0000
,  // measure 27
0010
0001
1000
1000
0100
1000
0010
0001
,  // measure 28
0000
0100
0001
0000
0100
0110
0100
0000
,  // measure 29
0010
0000
0001
0001
0001
0000
0101
0000
,  // measure 30
0010
0000
1000
0010
1000
0000
0100
0000
,  // measure 31
1000
0000
1000
1000
1000
0000
0110
0000
,  // measure 32
1000
0000
0001
0100
1000
0000
0010
0000
,  // measure 33
0010
0000
1000
0010
1000
0000
0110
0000
,  // measure 34
1000
0001
0100
0001
0000
0001
0100
0000
,  // measure 35
0010
0000
0001
0000
0001
0100
1000
0000
,  // measure 36
0001
0100
0010
1000
0001
0100
0101
0000
,  // measure 37
1010
0100
0110
1000
,  // measure 38
0011
1000
1001
0110
,  // measure 39
1000
0001
0100
0000
0100
0001
0010
0000
,  // measure 40
0010
1000
0001
0010
0100
0010
1001
0000
,  // measure 41
0100
0000
0101
0000
1000
0000
1010
0100
,  // measure 42
0001
1000
0101
0000
0010
0000
0110
0100
,  // measure 43
0000
0001
0000
1000
0000
0010
0000
0100
,  // measure 44
0001
0010
0100
0001
1000
0010
0110
1000
,  // measure 45
0001
0100
0101
0000
0010
1000
0010
0000
,  // measure 46
0100
0000
0101
0000
0100
0001
0010
0000
,  // measure 47
0010
1000
0100
0000
1000
0000
1000
0001
,  // measure 48
0000
0001
0100
0000
0010
1000
0100
0000
,  // measure 49
0001
0010
0100
0000
1000
0000
0101
0000
,  // measure 50
0010
0010
1000
0000
0100
0000
0110
0100
,  // measure 51
0000
0001
0000
1000
0000
0010
0100
0001
,  // measure 52
0000
0001
0100
0001
0000
0001
0010
0001
,  // measure 53
0100
0000
0101
0000
0001
0100
0001
0100
,  // measure 54
0010
0000
0001
0100
0010
0000
0010
0100
,  // measure 55
0000
0100
0001
1000
0000
1000
0001
0010
,  // measure 56
0000
0010
1000
0100
0000
0100
1000
0100
,  // measure 57
0001
0010
0100
0000
1000
0000
0101
0000
,  // measure 58
0001
0100
1000
0000
0010
0000
1010
0100
,  // measure 59
0000
0001
0000
0100
0000
0001
1000
0010
,  // measure 60
0000
0101
0000
0001
0000
1000
0010
0000
,  // measure 61
1000
0001
0100
0001
1000
1000
1000
0010
,  // measure 62
0000
0100
0001
0000
0100
0000
0110
0000
,  // measure 63
1000
0010
0100
0001
1000
1000
1000
0100
,  // measure 64
0000
0010
0100
0000
0001
0101
0000
0000
,  // measure 65
0010
0001
0010
0100
0010
1000
0010
0100
,  // measure 66
0000
0100
0001
0000
1000
0010
0110
0000
,  // measure 67
1000
0100
1000
0010
1000
0001
0100
0001
,  // measure 68
0000
0010
0001
0000
0100
0001
0110
0000
,  // measure 69
1001
0001
0001
0000
0100
0000
0010
0000
,  // measure 70
1000
0010
1000
0010
0000
0010
1010
0000
,  // measure 71
0100
0010
0010
0010
0001
0000
0100
0000
,  // measure 72
0001
0100
0001
0100
0000
1000
1010
0000
,  // measure 73
0110
0010
0010
0000
1000
0001
0010
0000
,  // measure 74
0100
0001
0010
0100
0000
1000
1010
0000
,  // measure 75
0001
0010
0001
0010
0000
0100
0001
0000
,  // measure 76
1000
0010
0100
0001
0100
1000
1010
0100
,  // measure 77
0101
0000
0001
0000
1000
0010
1000
0001
,  // measure 78
0100
0000
0001
0000
0010
0001
0010
0100
,  // measure 79
0010
0000
1000
0000
0001
0100
1000
0100
,  // measure 80
0001
0000
0100
0000
0001
0010
1000
0000
,  // measure 81
0010
0000
0001
1000
0000
0001
1000
0000
0001
1000
0000
0001
1000
0000
0001
1000
,  // measure 82
0000
0110
0000
0000
0001
1000
0101
0000
,  // measure 83
0010
1000
0010
0000
0100
0001
0100
0000
,  // measure 84
0010
1000
0001
0010
0100
1000
0101
1000
,  // measure 85
1010
0000
0100
0001
0110
0000
1001
0000
,  // measure 86
0010
1000
0010
0100
0000
0100
0010
0100
,  // measure 87
0001
0010
1000
0100
0010
0000
0110
0000
,  // measure 88
1000
0010
1000
0100
0000
0010
0110
0001
,  // measure 89
1000
0000
0101
1000
0010
0000
0100
0000
,  // measure 90
1001
0010
1000
0001
0000
0100
0110
1000
,  // measure 91
0010
1000
0100
0000
0100
0100
0010
0000
,  // measure 92
0100
1000
0001
0010
0100
0100
0110
0000
,  // measure 93
1010
0100
0001
0000
0001
0100
1000
0000
,  // measure 94
1000
0010
0001
0010
1000
0001
1000
0000
,  // measure 95
0010
0100
0001
0000
0001
0100
0010
0000
,  // measure 96
0010
1000
0001
0100
0010
0100
1001
0000
,  // measure 97
0001
0010
0100
0000
0100
0010
0100
0000
,  // measure 98
1000
0010
0100
0001
0010
0100
1000
0000
,  // measure 99
1000
0010
0100
0000
0100
0001
1000
0000
,  // measure 100
1000
0010
0100
0001
1000
0010
0110
0000
,  // measure 101
1001
0100
0001
0100
0010
1000
0001
0000
,  // measure 102
0001
0100
1000
0000
1010
0010
0100
0010
,  // measure 103
1000
0000
0000
0000
;
