#TITLE:DU-DU DI-DA;
#SUBTITLE:;
#ARTIST:MISA;
#TITLETRANSLIT:;
#SUBTITLETRANSLIT:;
#ARTISTTRANSLIT:;
#CREDIT:;
#BANNER:DU-DU DI-DA.png.png.png;
#BACKGROUND:DU-DU DI-DA.bg.png;
#LYRICSPATH:;
#CDTITLE:;
#MUSIC:DU-DU DI-DA.mp3;
#OFFSET:-7.900;
#SAMPLESTART:72.520;
#SAMPLELENGTH:12.000;
#SELECTABLE:YES;
#BPMS:0.000=135.990;
#STOPS:;
#BGCHANGES:;

//---------------dance-single - ----------------
#NOTES:
     dance-single:
     :
     Easy:
     4:
     0.222,0.227,0.141,0.000,0.000:
0010
0000
0100
0000
,
1000
0000
0010
0000
,
0010
0000
0010
0000
,
0001
0000
0100
0101
,
0010
0000
0100
0000
,
0010
0100
0001
0000
,
0010
0000
0100
0000
,
1000
0010
0001
0010
,
0110
0000
0001
0000
,
0010
0001
0100
0000
,
1000
0000
0100
0000
,
0010
0100
0010
1001
,
0010
0000
0000
0000
,
1010
0100
1000
0000
,
0010
0000
0100
0001
,
1000
1000
1000
0000
,
0100
0000
1000
0010
,
0001
0100
0001
0000
,
0010
0000
0100
0001
,
0100
0000
0100
0010
,
1001
0000
0001
0000
,
1000
0100
0100
0000
,
0010
0000
0100
0000
,
0001
0100
0100
0000
,
0001
0000
1000
0000
,
1000
0001
0001
0000
,
0010
0000
0001
0100
,
0110
0000
0000
0110
,
0001
0000
0000
0010
,
0010
0001
0001
0000
,
1000
0100
0001
0000
,
0010
1000
1000
0000
,
1000
0010
0001
0010
,
0010
0001
0001
0000
,
1000
0100
0001
0000
,
0010
1000
1000
0110
,
0001
0000
0000
0101
,
1001
0000
0010
0000
,
1000
0100
1000
0000
,
0100
0010
0001
0000
,
0001
0010
1000
0100
,
0110
0000
0100
0000
,
0010
0001
0010
0000
,
0010
1000
0100
0000
,
1000
0001
0100
0010
,
1001
0000
0100
0000
,
1000
0010
0100
0000
,
0001
1000
0010
0000
,
0010
0001
0010
0101
,
1001
0000
0100
0000
,
0010
0010
1000
0000
,
0100
1000
0100
0001
,
0101
0010
1000
0000
,
0100
0000
0010
0000
;

//---------------dance-single - ----------------
#NOTES:
     dance-single:
     :
     Medium:
     5:
     0.332,0.327,0.282,0.000,0.000:
0010
1000
0100
0001
,
1000
0000
0001
0101
,
1000
0001
0100
0001
,
1000
0010
0001
0010
,
0110
0100
0101
1000
,
0010
0000
1000
0010
,
0101
0001
0011
0100
,
0001
0000
0000
0000
0100
0001
0010
0000
,
1010
0100
0101
1000
,
0010
1000
0001
0000
,
0110
0001
0110
1000
,
0010
0000
0001
0000
1000
0010
0001
0000
,
1001
0000
0000
0000
,
1100
0000
0010
0100
0100
0000
0001
0000
,
0010
0001
0100
0100
,
0001
0000
0010
0010
0001
0000
0100
0000
,
1000
0000
0010
1010
,
0101
0000
0010
1000
0100
0000
0000
0000
,
0010
0000
0001
1000
0010
0000
0100
0000
,
1000
0000
0001
0000
0100
0000
1000
0001
,
0000
0001
0010
1010
,
0101
0010
1000
0100
,
1000
0100
0100
0000
,
0010
0001
0010
0100
,
0001
1000
0010
0000
,
0100
0001
0100
1000
,
0010
0001
0001
0000
,
0100
0000
0100
0000
0100
0000
0101
1000
,
0000
0010
0000
0010
,
1001
0100
0011
1000
,
0100
0001
0100
1000
,
0100
0010
0001
0000
0010
0001
1000
0000
,
0001
1000
0010
0010
,
0001
1000
0100
0000
1000
0100
0001
0000
,
0100
1000
1000
0100
,
0010
0100
0010
0000
0100
0001
0010
0000
,
1001
0000
0000
0000
0000
0000
1000
0001
,
0010
0100
0001
1000
,
1010
0000
0010
0000
0110
0000
0010
1000
,
0001
1000
0010
0001
,
1010
0000
0001
0000
0110
0000
0001
1000
,
0010
1000
0010
0001
,
0110
0000
0010
0000
1001
0000
0010
1000
,
0001
1000
0001
0010
,
0110
0000
1000
0000
0011
0000
0010
1000
,
0001
0000
0000
0100
0010
0000
0000
0000
,
1000
0000
0001
0000
0100
0000
0110
1000
,
0001
0000
0000
0100
0001
0000
0000
0000
,
0010
0001
1000
0000
0100
0000
0110
1000
,
0001
0000
0000
0100
0001
0000
0000
0000
,
0010
0000
1000
0000
0001
0000
0100
0001
,
0010
0000
0000
1000
0010
0000
0000
0000
,
0110
0000
1000
0001
0100
0000
0000
0000
,
0010
0000
0000
0100
0100
0000
0000
0000
;

//---------------dance-single - ----------------
#NOTES:
     dance-single:
     :
     Hard:
     7:
     0.448,0.428,0.273,0.000,0.000: // measure 1
1001
0000
0100
0000
1001
0000
0100
0010
,  // measure 2
0001
0000
1000
0001
0100
0000
0010
0000
,  // measure 3
1010
0000
0100
0000
0101
0000
0010
1000
,  // measure 4
0010
0000
0100
0001
0010
0000
1000
0100
,  // measure 5
0001
0100
0010
0000
0010
1000
0100
0000
,  // measure 6
0010
1000
0010
0100
0000
0001
0000
1000
,  // measure 7
0010
0001
0100
0000
0100
0001
0100
0000
,  // measure 8
0010
1000
0010
0001
0000
0100
0000
0010
,  // measure 9
1000
0001
0100
0000
0001
0010
0100
0000
,  // measure 10
0010
0001
0100
0001
0000
0001
0000
0010
,  // measure 11
1000
0100
0001
0000
0001
0010
0100
0000
,  // measure 12
0001
0100
1000
0100
0000
1000
0000
0100
,  // measure 13
1001
0000
0000
0000
,  // measure 14
1001
0100
0010
1000
0001
0000
0001
0100
,  // measure 15
0010
0000
1000
0010
0000
0001
0100
0000
,  // measure 16
1010
0100
1000
0010
0100
0000
0001
1000
,  // measure 17
0001
0000
0010
0100
0000
0100
0001
0000
,  // measure 18
0011
0100
0001
1000
0001
0000
0010
1000
,  // measure 19
0010
0000
0100
0001
0000
1000
0001
0000
,  // measure 20
1000
0010
0100
0000
0001
0000
1000
1001
,  // measure 21
0000
0100
0000
0001
0000
0100
0000
0001
,  // measure 22
1001
0100
0010
1000
0001
0000
0001
0100
,  // measure 23
0010
0000
1000
0010
0000
0100
0001
0000
,  // measure 24
0110
1000
0001
0100
0001
0000
0010
1000
,  // measure 25
0010
0000
0100
0001
0000
0100
1000
0010
,  // measure 26
1001
0010
1000
0010
0100
0000
0100
0001
,  // measure 27
0010
0000
0010
1000
0000
1000
0001
0000
,  // measure 28
0100
0001
0100
0001
0010
0000
1001
0100
,  // measure 29
0000
0001
0000
0100
0000
0001
0000
0001
,  // measure 30
0010
1000
0100
0000
1000
0001
0010
0000
,  // measure 31
0011
0100
1001
0100
,  // measure 32
0001
1000
0010
0000
0010
0100
0001
0000
,  // measure 33
0101
0000
1000
0000
1010
0000
0110
0001
,  // measure 34
1000
0010
0100
0000
0100
0001
0100
0000
,  // measure 35
0011
0100
0101
1000
,  // measure 36
0001
1000
0010
0100
0001
1000
0001
0100
,  // measure 37
1001
0000
0000
0000
,  // measure 38
0010
0100
0001
1000
0010
0100
0001
1000
,  // measure 39
0010
1000
0010
0000
0100
0001
0100
0000
,  // measure 40
0001
0010
1000
0100
0001
0010
1000
0100
,  // measure 41
0001
1000
0001
0100
0001
0000
0101
0000
,  // measure 42
1010
0100
0001
1000
0010
0100
0001
1000
,  // measure 43
0010
1000
0010
0000
0100
0001
0100
0000
,  // measure 44
1000
0010
0001
0100
1000
0010
0001
0100
,  // measure 45
0010
0100
0010
0100
0001
0000
1010
0100
,  // measure 46
0001
0000
0001
1000
0010
0000
0000
0000
,  // measure 47
0010
0100
0001
1000
0010
0000
0100
0001
,  // measure 48
1001
0000
0000
0010
0100
0000
0000
0000
,  // measure 49
1000
0100
1000
0100
0010
0000
0001
0100
,  // measure 50
1001
0000
0000
0010
0100
0000
0000
0000
,  // measure 51
0001
0010
0100
0000
0001
0100
1000
0001
,  // measure 52
1001
0000
0000
0010
0100
0000
0000
0000
,  // measure 53
1000
0100
1000
0010
0100
0000
0000
0010
,  // measure 54
1001
0000
0000
0100
1001
0000
0000
0000
;
