#TITLE:DRAGOSTEA DIN TEI;
#SUBTITLE:(OVERHEAD CHAMPION REMIX);
#ARTIST:O-ZONE;
#TITLETRANSLIT:;
#SUBTITLETRANSLIT:;
#ARTISTTRANSLIT:;
#CREDIT:;
#BANNER:DRAGOSTEA DIN TEI (OVERHEAD CHAMPION REMIX).png.png;
#BACKGROUND:DRAGOSTEA DIN TEI (OVERHEAD CHAMPION REMIX).bg.png;
#LYRICSPATH:;
#CDTITLE:;
#MUSIC:DRAGOSTEA DIN TEI (OVERHEAD CHAMPION REMIX).mp3;
#OFFSET:-8.000;
#SAMPLESTART:43.020;
#SAMPLELENGTH:12.000;
#SELECTABLE:YES;
#BPMS:0.000=139.990;
#STOPS:;
#BGCHANGES:;

//---------------dance-single - ----------------
#NOTES:
     dance-single:
     :
     Easy:
     4:
     0.298,0.337,0.147,0.323,0.000:
1000
0000
0100
0000
,
0010
0000
0010
0100
,
0001
0000
0001
1000
,
0100
0000
0100
0000
,
0100
0000
0000
0000
,
0120
0000
0100
0130
,
2000
0000
0010
3001
,
0002
0000
0010
1003
,
0200
0000
0010
0301
,
0020
1000
0130
0001
,
0002
0010
0103
0100
,
0020
1000
0130
0001
,
0002
0000
0103
0101
,
1020
0000
0130
0001
,
0002
0000
0013
1000
,
0200
0000
1300
0001
,
0020
0000
0031
0100
,
1020
0000
0130
0001
,
0120
0000
0130
0001
,
0020
0031
0200
0310
,
2002
0000
3003
0000
,
0010
0001
0010
0100
,
1000
0100
0010
0001
,
1000
0010
0100
0010
,
1000
0100
1000
0010
,
0001
0100
0001
0010
,
0100
1000
0010
0100
,
0001
0010
0100
0010
,
0001
1000
0001
0000
,
0110
0001
1000
0010
,
1000
0000
0100
0101
,
0010
0000
0100
0101
,
0010
1000
0010
0110
,
1000
0100
1000
0010
,
0100
0000
0010
0101
,
0010
0001
0100
0010
,
1001
0000
0100
0010
,
0020
0000
0031
0100
,
2000
0000
3010
0001
,
0200
0000
0310
1000
,
0002
0003
0010
1010
,
0200
0000
1300
0010
,
0002
0000
0013
0100
,
0020
0000
1030
0100
,
0002
0003
1000
1010
,
0200
0000
0000
0310
,
0002
0000
0000
0013
,
0200
0000
0000
0310
,
2000
0000
0000
3100
,
0020
0000
0100
0130
,
0002
0000
0013
0100
,
0020
0000
1030
0100
,
0001
1000
0010
0000
,
1001
0000
0000
0000
;

//---------------dance-single - ----------------
#NOTES:
     dance-single:
     :
     Medium:
     5:
     0.386,0.389,0.313,0.264,0.000:
0002
1000
0100
0013
,
0210
0000
0000
0000
0301
0000
0010
0010
,
0000
0000
0010
0100
0000
0000
0100
0002
,
0000
0003
0000
0200
0000
0300
0000
0002
,
0000
0003
0000
0020
0000
0030
0000
0000
,
0002
0010
0100
0103
,
0200
0001
0010
0310
,
0020
1000
0100
1030
,
2000
0001
0100
3100
,
0010
0000
0000
0100
0001
0000
0010
0000
,
0100
0000
0000
0010
1000
0000
0101
0000
,
1000
0000
0000
0001
1000
0000
0010
0000
,
0100
0000
0000
0010
1000
0000
0101
0000
,
0012
0000
0100
0000
0013
0000
1000
0010
,
0200
0001
0310
0101
,
0020
0000
0100
0000
0130
0000
1000
0010
,
0200
0001
0310
1010
,
0102
0000
1000
0000
0013
0000
0010
1000
,
0002
0010
0103
1100
,
0101
0010
0110
1001
,
1001
0000
0000
0000
,
1010
0000
0102
0000
0013
0000
1000
0001
,
1000
0000
0000
0000
0010
0000
1000
0010
,
0001
0000
0000
0000
0100
0000
0001
0010
,
0100
0001
0010
1010
,
0102
0013
1000
0010
,
0200
0000
0000
0000
0301
0000
0010
1000
,
0000
0000
0010
0100
0000
0000
0001
1000
,
0000
0010
0101
0101
,
2001
0000
3010
0000
0100
0000
0001
0010
,
0001
0000
0000
0000
0100
0000
0001
0100
,
0010
0000
0000
0000
0010
0000
1000
0010
,
0100
0101
0010
0110
,
1002
0000
0103
0000
0010
0000
1000
0010
,
0100
0000
0000
0000
0001
0000
0010
0100
,
0000
0000
0001
1000
0000
0000
0010
0100
,
0000
1001
0000
0100
0000
0101
0000
0011
,
0100
0000
0001
0000
1000
0010
0100
0000
,
0001
0000
0100
0000
0001
1000
0001
0000
,
0010
0000
0001
0000
0100
0001
0010
0000
,
0100
0001
0010
0101
,
2000
0000
3100
0000
0001
0010
0100
0000
,
0020
0000
0130
0000
1000
0001
1000
0000
,
0020
1000
0130
0101
,
1000
0001
1000
0000
0020
0000
0031
0000
,
0101
0000
0010
0000
0000
1000
0010
0000
,
0100
0000
0001
0000
0000
0010
0001
0000
,
0011
0000
0100
0000
0000
0100
0001
0000
,
0010
0000
1010
0000
0000
0100
0001
0000
,
0010
0000
0100
0000
0000
1000
0001
0000
,
0010
0000
0100
0000
0000
0001
1001
0000
,
0010
0000
0100
0000
0001
0010
0100
0000
,
0002
0000
0103
0000
2000
0010
3000
0000
,
1001
0000
0000
0000
;

//---------------dance-single - ----------------
#NOTES:
     dance-single:
     :
     Hard:
     7:
     0.496,0.441,0.059,0.235,0.000: // measure 1
0200
0000
0301
0000
0200
0010
0301
1000
,  // measure 2
0020
0000
0130
0000
0002
0000
0013
0010
,  // measure 3
0000
0010
0100
1000
0000
0010
0100
0001
,  // measure 4
1000
0100
0000
1010
0000
0100
0000
0101
,  // measure 5
0000
1000
0000
1010
0000
0100
0000
0000
,  // measure 6
1010
0001
0100
0001
0020
0000
0130
0000
,  // measure 7
0001
1000
0100
1000
0020
0000
0130
0000
,  // measure 8
0100
1000
0010
1000
0020
0000
0130
0000
,  // measure 9
0001
0010
0001
0100
0001
0000
0100
0000
,  // measure 10
0001
1000
0000
1000
0010
1000
0100
0010
,  // measure 11
1000
0010
0000
0010
0100
0001
0010
0100
,  // measure 12
0001
0010
0000
0010
0001
0100
0010
0010
,  // measure 13
1000
0010
0000
0010
1000
0100
0001
0100
,  // measure 14
2000
0000
3010
0000
0100
0001
0100
0001
,  // measure 15
0020
0000
0130
0000
1000
0001
1000
0001
,  // measure 16
0020
0000
0031
0000
0100
0001
0100
0001
,  // measure 17
0000
0110
0000
0000
1000
0010
1000
0100
,  // measure 18
0001
0000
0010
0000
1000
0010
1000
0100
,  // measure 19
0001
0000
1000
0000
0010
1000
0010
1000
,  // measure 20
0200
0000
0301
0000
0010
0100
0001
2000
,  // measure 21
0000
3020
0000
0000
0130
0000
0001
1000
,  // measure 22
0001
0010
0010
0000
0100
0001
1000
0010
,  // measure 23
0200
0000
0301
0000
0010
1000
0010
0100
,  // measure 24
0002
0000
0013
0000
1000
0010
1000
0100
,  // measure 25
0001
0100
2000
0000
3020
0000
0230
0001
,  // measure 26
0301
0000
0100
0001
1000
0010
0100
0001
,  // measure 27
1000
0000
0010
0000
0100
0001
1000
0010
,  // measure 28
0000
0010
0100
0001
0000
0001
1000
0010
,  // measure 29
0100
0001
0010
0000
0010
0001
0100
0001
,  // measure 30
0010
1000
0100
0000
0100
1000
0010
0100
,  // measure 31
0002
0000
0013
0000
1000
0010
1000
0100
,  // measure 32
2000
0000
3100
0000
0010
0100
0010
0100
,  // measure 33
1000
0010
0002
0000
0203
0000
0320
1000
,  // measure 34
1030
0000
0100
0000
1000
0100
0001
0100
,  // measure 35
0020
0000
0130
0000
0100
0001
0100
0010
,  // measure 36
0000
0010
0001
0100
0000
0100
0001
0010
,  // measure 37
0001
1000
0001
0100
0001
1000
0001
0100
,  // measure 38
0010
1000
0100
0000
1000
0010
0100
0000
,  // measure 39
0001
1000
0010
0000
0100
0001
0010
0000
,  // measure 40
0100
0001
0000
0001
1000
0010
1000
0000
,  // measure 41
0100
0010
0000
0010
0100
0001
1000
0000
,  // measure 42
0010
1000
0100
0000
0001
1000
0100
0000
,  // measure 43
0010
0001
0100
0000
1000
0010
0010
0000
,  // measure 44
0100
0001
0010
0000
0100
0010
0010
0000
,  // measure 45
1000
0001
0010
0000
0100
0001
1000
0100
,  // measure 46
1000
0010
0100
0000
1000
0001
0100
0000
,  // measure 47
0010
0001
0001
0000
0100
0001
0010
0000
,  // measure 48
0100
0010
0010
0000
1000
0010
0100
0000
,  // measure 49
1000
0100
0100
0000
0001
0100
0010
0000
,  // measure 50
1000
0010
0000
0010
0100
0001
1000
0010
,  // measure 51
0100
0001
0000
0001
0010
0001
0100
0001
,  // measure 52
1000
0010
0000
0010
0100
0001
1000
0010
,  // measure 53
0100
0010
1000
0001
1000
0001
0000
0000
,  // measure 54
1001
0000
0000
0000
;
