#TITLE:DON'T STOP!;
#SUBTITLE:(KORS K MIX);
#ARTIST:kors k;
#TITLETRANSLIT:;
#SUBTITLETRANSLIT:;
#ARTISTTRANSLIT:;
#CREDIT:;
#BANNER:DON'T STOP! (KORS K MIX).png.png;
#BACKGROUND:DON'T STOP! (KORS K MIX).png;
#LYRICSPATH:;
#CDTITLE:;
#MUSIC:DON'T STOP! (KORS K MIX).mp3;
#OFFSET:-5.820;
#SAMPLESTART:45.320;
#SAMPLELENGTH:12.000;
#SELECTABLE:YES;
#BPMS:0.000=170.000;
#STOPS:;
#BGCHANGES:;

//---------------dance-single - ----------------
#NOTES:
     dance-single:
     :
     Challenge:
     7:
     0.527,0.465,0.211,0.000,0.000: // measure 1
0100
0010
1000
0010
0000
0010
1000
0000
,  // measure 2
0100
1000
0010
0100
0000
0100
0001
0000
,  // measure 3
1001
0000
0010
0100
0000
0001
0000
1000
,  // measure 4
0000
0010
0100
0001
1000
0010
0100
0000
,  // measure 5
1001
0100
0000
0001
0000
0010
0000
0001
,  // measure 6
0010
0100
0000
0100
0000
0001
0000
0100
,  // measure 7
0010
1000
0000
0100
0000
0001
0000
1000
,  // measure 8
0001
1000
0000
0001
1000
0001
0000
0100
,  // measure 9
0010
1000
0100
0010
0000
0001
0000
0100
,  // measure 10
0010
0001
0100
0010
0000
1000
0010
0000
,  // measure 11
1001
0000
0010
0010
0000
0100
0000
0001
,  // measure 12
0000
1000
0010
1000
0100
0001
0100
0001
,  // measure 13
0010
1000
0100
1000
,  // measure 14
1000
0000
0010
1000
0010
0000
0100
0000
,  // measure 15
0001
0000
0100
0001
0100
0000
0010
0000
,  // measure 16
1000
1000
1000
0100
,  // measure 17
0101
0000
0010
0000
1000
0000
0010
1000
,  // measure 18
0100
0000
0001
0000
0100
0000
0001
1000
,  // measure 19
0010
0000
0100
0100
0000
0000
0001
0000
,  // measure 20
1000
0010
0100
0001
,  // measure 21
0101
0000
1000
0000
0010
1000
0100
0000
,  // measure 22
0110
0000
1000
0000
0001
1000
0100
0000
,  // measure 23
0110
0000
1000
0000
0001
1000
0001
0000
,  // measure 24
0110
0000
1000
0000
0001
0100
1000
0000
,  // measure 25
1010
0010
0110
1000
,  // measure 26
1100
0010
0101
0010
,  // measure 27
0001
0010
0001
0000
0100
1000
0100
0000
,  // measure 28
0010
0001
0100
0001
0010
1000
0100
0001
,  // measure 29
0010
0010
0000
0100
0000
0001
0000
1000
,  // measure 30
0010
1000
0000
0100
0000
0001
0000
1000
,  // measure 31
0001
1000
0001
1000
0000
0010
0000
0100
,  // measure 32
0001
0100
0000
1000
0010
1000
0000
0100
,  // measure 33
1000
0010
0100
0001
0000
0001
0100
0000
,  // measure 34
0010
0001
0100
0001
0000
0001
1000
0010
,  // measure 35
1000
0001
1000
0001
0000
0010
0000
0100
,  // measure 36
0010
1000
0100
0010
0001
0100
0010
0000
,  // measure 37
1001
0100
0000
0001
0000
1000
0000
0010
,  // measure 38
1000
0010
1000
0100
0000
0001
0000
1000
,  // measure 39
0001
1000
0001
0100
0000
0010
0000
1000
,  // measure 40
0010
0001
0000
0001
0100
0010
0000
0001
,  // measure 41
1000
0010
0001
0100
0000
0100
0010
0000
,  // measure 42
0010
1000
0001
0100
0000
0100
0001
0000
,  // measure 43
1000
0001
1000
0001
0000
0100
0000
0010
,  // measure 44
0001
0100
0010
1000
0001
0100
0010
0000
,  // measure 45
1010
0100
0001
1000
0000
1000
0010
0100
,  // measure 46
0001
1000
0001
0010
0000
0100
0000
0001
,  // measure 47
1000
0001
1000
0001
0000
0010
0000
0001
,  // measure 48
0010
0001
0000
1000
0100
1000
0010
0000
,  // measure 49
0110
0001
1000
0010
0000
0100
0000
0001
,  // measure 50
1000
0010
1000
0100
0000
1000
0000
1000
,  // measure 51
0010
0000
0100
0100
0000
0001
0000
0100
,  // measure 52
0000
0010
0001
0100
0001
1000
0010
0000
,  // measure 53
1010
0100
0001
1000
0000
1000
0010
0000
,  // measure 54
0110
0000
0001
1000
0000
1000
0010
0000
,  // measure 55
0100
0001
1000
0010
0000
0100
0000
0001
,  // measure 56
0000
0010
0001
0100
0001
1000
0110
0000
,  // measure 57
1001
0000
0000
0000
;
