#TITLE:DEBUG DANCE;
#SUBTITLE:;
#ARTIST:LAPIX;
#TITLETRANSLIT:;
#SUBTITLETRANSLIT:;
#ARTISTTRANSLIT:;
#CREDIT:;
#BANNER:DEBUG DANCE.png.png;
#BACKGROUND:DEBUG DANCE.bg.png;
#LYRICSPATH:;
#CDTITLE:;
#MUSIC:DEBUG DANCE.mp3;
#OFFSET:-6.600;
#SAMPLESTART:63.380;
#SAMPLELENGTH:12.000;
#SELECTABLE:YES;
#BPMS:0.000=150.990;
#STOPS:;
#BGCHANGES:;

//---------------dance-single - ----------------
#NOTES:
     dance-single:
     :
     Easy:
     4:
     0.303,0.388,0.309,0.000,0.000:
0010
0000
0010
0000
,
1000
0000
0100
0000
,
1000
0000
1000
0000
,
0100
0000
0001
0000
,
1001
0010
1000
1000
,
0100
0001
0010
0000
,
1000
0100
0001
0100
,
0010
1000
0101
0000
,
0010
1000
0100
0100
,
0001
0010
0100
0101
,
0010
0010
0010
0010
,
1000
0101
0010
1000
,
0000
1010
0100
1000
,
0010
0010
0001
0100
,
0010
0100
0010
0100
,
0001
0010
0100
1100
,
0101
0010
0001
0001
,
0100
1000
0010
0000
,
0100
1000
0100
0001
,
0010
1000
0001
1000
,
1010
0000
0100
0000
,
0001
0000
0000
0010
0000
0000
1001
0000
,
0110
0000
0100
0000
,
0001
0000
0000
0010
0000
0000
0101
0000
,
1001
0000
0100
0000
,
0001
0000
1000
0000
,
0010
0000
0001
0000
,
0010
0000
0010
0000
,
1001
0000
0100
0000
,
0010
0001
0010
0000
,
0100
0000
0001
0000
,
1000
1000
0010
0100
,
1001
0000
0010
0000
,
0100
1000
0010
0000
,
0100
0000
0001
0000
,
0010
0001
0100
0010
,
1000
0100
0001
0110
,
1000
0001
0100
0000
,
0010
0001
1000
1010
,
0100
1000
0010
0000
,
0100
0001
1000
1100
,
0010
0100
0001
0000
,
0010
0010
0001
0101
,
0010
1000
0001
0010
,
0110
1000
0101
1000
,
0010
1000
0001
0100
,
0110
1000
0110
0001
,
1000
0010
1000
0010
,
0101
1000
0010
0100
,
0011
1000
0001
0100
,
1001
0100
1001
0100
,
0010
0010
1010
0101
,
1001
0000
0000
0000
;

//---------------dance-single - ----------------
#NOTES:
     dance-single:
     :
     Medium:
     7:
     0.525,0.498,0.405,0.000,0.064:
1000
0000
0100
0000
0001
0000
0000
0000
0010
0000
0000
0010
0000
0000
0000
0000
,
0001
0000
0100
0000
1000
0000
0000
0000
0010
0000
0000
0010
0000
0000
0010
0000
,
0001
0100
0001
0010
1000
0010
0100
0001
,
1000
0010
0010
0000
0100
0000
0101
0000
,
1010
0100
1000
0100
0010
0100
0001
0100
,
0001
1000
0010
0100
1000
0010
1000
0100
,
0001
1000
0010
0000
0010
0100
0001
0000
,
0001
1000
0100
0001
0010
0100
0101
0000
,
0010
0100
0100
0001
1000
0000
0010
0000
,
0100
0001
0001
0010
0100
0000
1100
0000
,
1010
0100
1000
0010
0100
0001
0010
1000
,
0001
1000
0101
0000
0010
1000
0100
0100
,
0001
0100
0110
0000
0010
1000
0100
0000
,
0100
1000
0100
0010
0100
0001
0100
0000
,
0001
1000
1000
0001
0010
1000
1000
0001
,
0010
0001
0010
0001
0100
0000
0110
0000
,
1000
0001
0100
0000
0100
0001
0010
0000
,
0010
0100
0100
0010
1001
0000
1001
0000
,
1001
0010
0001
0001
1000
0001
1000
0000
,
0010
1000
0100
0010
0001
0010
0100
1000
,
1001
0000
0101
0000
,
0010
0000
0000
0001
0000
0000
0100
0000
0000
0000
0001
0000
1000
0000
0000
0000
,
1001
0000
1100
0000
,
0010
0000
0000
1000
0000
0000
0100
0000
0000
0000
0010
0000
0100
0000
0000
0000
,
1001
0001
0001
0100
,
1010
1000
1000
0100
,
0001
1000
0010
0000
1000
0001
0010
0000
,
1000
0100
0001
0100
1000
0001
1000
0010
,
0110
0000
0000
0010
0000
0000
0010
0000
0000
0010
0000
0000
0001
0000
0000
0000
,
0100
0000
0010
0100
,
1010
0000
0000
0100
0000
0000
0100
0000
0000
0100
0000
0000
0001
0000
0000
0000
,
0010
1000
0001
1001
,
0110
0000
0000
0100
0000
0000
0001
0000
0000
0010
0000
0000
1000
0000
0000
0000
,
0001
1000
0001
0000
0001
0100
0001
0000
,
0010
0000
0000
0010
0000
0000
0010
0000
0000
0001
0000
0000
0100
0000
0000
0000
,
0010
1000
1001
0101
,
1010
0100
1000
0000
1000
0100
0010
0100
,
0001
1000
0010
0011
,
1100
0010
0100
0000
0001
1000
0010
0100
,
0001
1000
0001
0100
0001
0000
0011
0000
,
0110
0100
0001
0000
0100
0010
1000
0001
,
0100
0010
1000
1001
,
0101
0010
1000
0000
0100
1000
0010
0100
,
0001
1000
0001
0000
0011
0000
1100
0000
,
0010
0100
0001
1000
0010
0100
0010
1000
,
0010
1000
0100
1000
0001
1000
0001
0100
,
0001
0001
1000
1000
0010
0100
0010
0100
,
0001
0001
1000
1000
0010
0100
0010
1001
,
0100
0000
1000
0000
0010
0100
0001
0000
,
1010
0000
0100
0000
0001
0001
0100
0000
,
0011
0100
0101
0010
,
1000
0010
1000
0001
1000
0000
0101
0000
,
1001
0000
0000
0000
;

//---------------dance-single - ----------------
#NOTES:
     dance-single:
     :
     Hard:
     9:
     0.642,0.581,0.490,0.000,0.261: // measure 1
1000
0000
0010
0000
1000
0000
0100
0000
0001
0000
0000
0001
0000
0000
0010
0000
,  // measure 2
0100
0000
0001
0000
0001
0000
0010
0000
0100
0000
0000
1010
0000
0000
0100
0000
,  // measure 3
0001
0100
0001
0100
0010
1000
0001
0011
,  // measure 4
0000
1100
0000
0110
0001
1000
0001
0101
,  // measure 5
0010
0010
0010
0001
0100
0100
0100
0001
,  // measure 6
0010
1000
0100
0001
0010
0100
0010
1000
,  // measure 7
0101
0000
0100
0001
0000
0100
0001
0000
0100
0010
0000
0100
0010
0000
1000
0000
,  // measure 8
0001
0000
0001
0000
0001
0000
0100
0000
0010
1000
0010
0000
0110
0000
0000
0000
,  // measure 9
0001
1000
0001
0100
0100
0001
0010
0001
,  // measure 10
0100
1000
0100
0010
0100
0001
0010
0101
,  // measure 11
1000
0010
1000
0000
0100
0000
0001
0000
0001
0010
0001
0000
0100
0000
1000
0000
,  // measure 12
0010
0100
0010
0110
0001
1000
0001
1000
,  // measure 13
0010
1000
0110
0000
0001
1000
1001
0010
,  // measure 14
0100
0001
1000
0010
0100
0010
0001
0010
,  // measure 15
1000
0001
1000
0100
0001
0010
0100
1000
,  // measure 16
0010
1000
0100
1000
0001
0010
1000
1001
,  // measure 17
0010
0100
0010
0100
0001
1000
0001
1000
,  // measure 18
0001
0000
0010
0000
0100
0001
0000
0000
0101
0000
1000
0000
1010
0000
0000
0000
,  // measure 19
0101
1000
0010
0100
0110
1000
0001
0100
,  // measure 20
0001
0000
0001
0000
0001
1000
0000
0001
0000
0001
0000
0000
1001
0000
0000
0000
,  // measure 21
1010
0100
0000
0001
0101
0010
0000
1000
,  // measure 22
1001
0000
0000
0101
0000
0000
0110
0000
0000
0000
1010
0000
0100
0000
0001
0000
,  // measure 23
0011
0100
0000
0001
1001
0010
0000
0100
,  // measure 24
0101
0000
0000
1010
0000
0000
0110
0000
0000
1001
0000
0000
0100
0001
0100
0000
,  // measure 25
0010
1000
0010
0000
0100
0010
0100
0000
,  // measure 26
0010
0001
0010
0000
0100
0001
0100
0000
,  // measure 27
0010
1000
0100
0000
0100
0001
0010
0000
,  // measure 28
0010
0000
0000
0101
0000
0000
0100
0000
0010
0000
1000
0000
1001
0000
0000
0000
,  // measure 29
0110
0000
0000
0100
0000
0000
0000
0001
0000
0000
1000
0000
0000
0010
0000
0000
,  // measure 30
0010
0000
0000
0001
0000
0000
0100
0000
0000
0001
0000
0000
1010
0000
0100
0000
,  // measure 31
0101
0000
0000
0001
0000
0000
1000
0000
0000
0010
0000
0000
0100
0000
0000
0000
,  // measure 32
0001
0000
0000
1000
0000
0000
0010
0000
0000
0100
0000
0000
0001
0000
0101
0000
,  // measure 33
0011
0000
0000
0001
0000
0000
0100
0000
0000
0010
0000
0000
1000
0000
0001
0000
,  // measure 34
0100
0000
0000
0010
0000
0000
1000
0000
0000
0001
0000
0000
0100
0000
0010
0000
,  // measure 35
1010
0000
0000
0100
0000
0000
0001
0000
0000
1000
0000
0000
0010
0000
0100
0000
,  // measure 36
0001
0000
0000
0100
0000
0000
0001
0000
0000
0000
0010
0000
0011
0000
0100
0000
,  // measure 37
0001
0010
0001
0100
0001
0000
0010
1000
,  // measure 38
0010
1000
0000
0010
1000
0000
0000
0000
0100
0000
0001
0000
0101
0000
0000
0000
,  // measure 39
0100
1000
0100
0010
0100
0001
0001
0000
,  // measure 40
0100
0001
0000
0000
0001
0100
0000
0000
0100
0010
0100
0000
1001
0000
0100
0000
,  // measure 41
0010
1000
0010
0100
0010
0010
0010
0000
,  // measure 42
0001
0010
0000
0000
0010
0100
0000
0000
0100
0010
0000
0000
1001
0000
0100
0000
,  // measure 43
0010
1000
0010
0100
0001
0001
0100
0000
,  // measure 44
0010
1000
0000
0000
0010
1000
0000
0000
0001
0000
1001
0000
0000
0000
0101
0000
,  // measure 45
0010
0010
0010
0001
0100
0100
0100
0001
,  // measure 46
1000
0100
0001
0100
1000
1000
1000
0001
,  // measure 47
0010
0001
0000
0010
0001
0000
0010
0001
0000
0010
0001
0000
0010
0000
0010
0000
,  // measure 48
0100
0001
0100
1000
0100
0010
0100
1001
,  // measure 49
0010
1000
0010
0100
0001
0001
0001
0000
,  // measure 50
0010
0001
0010
0100
1000
1000
1000
0000
,  // measure 51
0100
0010
0100
1000
0100
0010
0001
0010
,  // measure 52
0100
0000
0100
0000
0100
0000
0001
0000
1000
0001
1000
0000
1001
0000
0000
0000
,  // measure 53
0110
0000
0000
0000
;
