#TITLE:DAY N NIGHT;
#SUBTITLE:;
#ARTIST:AIYO;
#TITLETRANSLIT:;
#SUBTITLETRANSLIT:;
#ARTISTTRANSLIT:;
#CREDIT:;
#BANNER:DAY N NIGHT.png;
#BACKGROUND:DAY N NIGHT.bg.png;
#LYRICSPATH:;
#CDTITLE:;
#MUSIC:DAY N NIGHT.mp3;
#OFFSET:-5.260;
#SAMPLESTART:32.660;
#SAMPLELENGTH:12.000;
#SELECTABLE:YES;
#BPMS:0.000=122.020;
#STOPS:;
#BGCHANGES:;

//---------------dance-single - ----------------
#NOTES:
     dance-single:
     :
     Easy:
     6:
     0.372,0.307,0.287,0.000,0.000:
0100
0001
0100
1000
,
0010
1000
0100
0000
0100
0001
0010
0000
,
0110
0000
1000
0000
0100
0100
1000
0000
,
0010
0000
0100
0000
0001
0001
0010
0000
,
0100
0000
0001
0000
0100
0001
0010
0000
,
0100
0001
0100
0000
0001
0100
0001
0000
,
1001
0000
0000
0000
1000
1000
1000
0000
,
0110
0000
0000
0000
0001
0001
0010
0000
,
0110
0000
0000
0000
0100
0100
0100
0000
,
1001
0000
0000
0000
0001
1000
0001
0000
,
0110
0000
0000
0000
0001
0100
1000
0000
,
0110
0000
0000
0000
1000
0100
0001
0000
,
1010
0000
0000
0000
0001
0010
0100
0000
,
1000
0101
0101
0000
,
0001
0000
0010
0000
0001
0100
1000
0000
,
0010
0000
0100
0000
0100
0001
0010
0000
,
0100
0000
1001
0000
0100
0100
0010
0000
,
0010
0100
0010
0000
0100
0001
0100
0000
,
1000
0000
1010
0000
0100
0001
0010
0000
,
0100
0000
0001
0000
1000
1000
0010
0000
,
0100
0000
0101
0000
0010
0001
0010
0000
,
0101
0000
0010
0000
0010
1000
0010
0000
,
0010
0000
0100
0000
0001
0100
0001
0000
,
0010
0000
0001
0000
1000
0100
1000
0000
,
0010
0000
0100
0000
0010
0100
0001
0000
,
0001
1000
0010
0000
0100
0001
0100
0000
,
0110
0000
1000
0000
1000
0100
0010
0000
,
0100
0000
0001
0000
1000
0001
1000
0000
,
0010
0000
0101
0000
0001
0010
1000
0000
,
1000
0001
1000
0000
0001
1000
0001
0000
,
0010
0000
0100
0000
0001
0100
0101
0000
,
0010
0000
0001
0000
1000
0100
1100
0000
,
0010
0000
0100
0000
0001
0100
0110
0000
,
1000
0000
0001
0000
0010
0001
0011
0000
,
0100
0000
0001
0000
0010
1000
1010
0000
,
0100
0000
0001
0000
0100
0010
0110
0000
,
1000
0000
0001
0000
1000
0001
1001
0000
,
0001
0000
0010
0000
0010
0100
0010
0100
;

//---------------dance-single - ----------------
#NOTES:
     dance-single:
     :
     Medium:
     7:
     0.427,0.378,0.287,0.000,0.000:
0001
1000
0100
0000
0001
1000
0010
0000
,
1000
0010
0001
0100
1000
0001
1000
0000
,
0010
0100
1000
0000
0010
0100
0110
0000
,
0001
0010
0100
0000
1000
0001
0101
0000
,
0001
0100
0001
0000
0001
0010
0100
0000
,
1000
0001
1000
0100
0001
1000
0001
0000
,
1010
0000
0101
0000
0010
1000
0100
0000
,
0011
0000
1000
0000
1100
0001
0010
0000
,
0101
0000
1010
0000
0100
0001
0100
0000
,
1010
0000
0100
0000
0110
1000
0001
0000
,
0100
0000
0001
0000
0010
0001
0010
0000
,
0001
0000
0100
0000
1000
0001
1000
0000
,
0100
0000
0010
0000
1000
0010
1000
0000
,
0101
0000
0110
0010
0010
0000
0000
0000
,
1000
0010
0100
0000
0101
0000
0010
0000
,
1000
0001
0010
0000
0010
1000
0100
0000
,
1000
0010
0100
0000
0101
0000
0010
0000
,
0001
0010
0001
0100
1000
0001
1000
0000
,
0010
0100
0010
0000
1000
0000
0101
0000
,
0010
1000
0001
0000
0001
0010
0100
0000
,
1000
0001
1000
0000
0100
0000
1100
0000
,
0010
1000
0010
0100
0001
1000
0001
0000
,
0010
0001
0010
0001
0100
0000
0001
0000
,
0010
1000
0010
1000
0100
0000
0001
0000
,
0100
0001
0100
0001
0010
0000
1000
0000
,
0001
1000
0001
1000
0010
0000
0110
0000
,
1000
0001
0100
0001
1000
0000
0010
0000
,
1000
0100
0001
0100
1000
0000
0010
0000
,
0100
0010
1000
0010
0001
0000
0010
0000
,
0100
0001
0100
0000
0010
0000
1010
0000
,
0100
0001
0101
0010
0000
1000
0010
0000
,
0100
0001
1001
0010
0000
0100
0001
0000
,
1000
0010
1000
0100
0000
0100
0001
0000
,
0001
0010
0100
0010
0000
0100
0010
0000
,
0001
1000
0000
0101
0000
0010
1000
0000
,
0100
0001
0000
1100
0000
0010
0100
0000
,
0001
1000
0000
0101
0000
0010
0100
0000
,
0100
0001
0100
0010
1000
0001
1000
0001
;

//---------------dance-single - ----------------
#NOTES:
     dance-single:
     :
     Hard:
     8:
     0.504,0.425,0.274,0.000,0.125: // measure 1
1000
0010
1000
0100
0001
0001
0001
0000
,  // measure 2
0100
0100
0001
0010
1000
1000
0001
0000
,  // measure 3
0100
0001
0101
0010
0000
1000
0010
1000
,  // measure 4
0100
0010
0001
0110
0000
1000
0001
0100
,  // measure 5
0001
0010
0001
0100
1000
1000
1000
0000
,  // measure 6
1000
1000
0100
0001
0010
0010
0100
0001
,  // measure 7
1000
0000
0000
0010
1000
0000
0100
0000
0001
0000
0000
0000
0101
0000
0000
0000
,  // measure 8
0010
0000
0000
0100
0010
0000
0001
0000
1000
0000
0000
0000
1001
0000
0000
0000
,  // measure 9
0010
0000
0000
1000
0010
0000
0100
0000
0010
0000
0000
0000
0110
0000
0000
0000
,  // measure 10
0010
0000
0000
0100
0001
0000
0010
0000
0100
0000
0000
0000
1100
0000
0000
0000
,  // measure 11
1000
0000
0000
0010
0100
0000
0001
0000
1000
0000
0000
0000
0110
0000
0000
0000
,  // measure 12
1000
0000
0000
0001
0100
0000
0001
0000
0010
0000
0000
0000
0110
0000
0000
0000
,  // measure 13
0100
0000
0000
0001
1000
0000
0010
0000
0100
0000
0000
0000
0110
0000
1000
0000
,  // measure 14
0001
0000
0100
0000
0001
0000
1000
0001
1000
0000
0001
0000
0010
0000
0000
0000
,  // measure 15
0011
0100
0001
0001
0100
0001
1000
0000
,  // measure 16
0010
1000
0001
0100
0010
1000
0001
0000
,  // measure 17
0110
1000
0010
0100
0010
1000
1000
0000
,  // measure 18
1000
0000
0100
0000
0010
0000
1000
0001
1000
0000
0100
0000
0001
0000
0000
0000
,  // measure 19
0110
0001
1000
0100
0001
0001
0010
0000
,  // measure 20
0100
0001
1000
0010
0100
0001
1000
0000
,  // measure 21
0110
0001
0010
0100
0001
0001
0010
0000
,  // measure 22
0100
0000
0001
0000
0100
0000
0010
1000
0010
0000
0100
0000
0001
0000
0000
0000
,  // measure 23
0100
0001
0100
0101
0000
0010
1000
0000
,  // measure 24
0100
0001
0100
0110
0000
0010
1000
0000
,  // measure 25
0100
1000
0001
0101
0000
0010
1000
0000
,  // measure 26
0100
0001
1000
1000
0010
0100
0001
0000
,  // measure 27
0100
0001
1000
1100
0000
0010
1000
0000
,  // measure 28
0100
1000
0010
1010
0000
0100
0001
0000
,  // measure 29
1000
0010
0100
0011
0000
0010
0001
0000
,  // measure 30
0001
0000
0100
0000
0001
0000
1000
0001
1000
0000
0001
0000
0010
0000
0000
0000
,  // measure 31
0100
0000
0000
0100
0001
0000
0010
0000
0001
0000
0100
0000
0001
0000
0000
0000
,  // measure 32
0010
0000
0000
1000
0010
0000
1000
0000
0001
0000
1000
0000
0001
0000
0000
0000
,  // measure 33
0100
0000
0000
0010
1000
0000
0001
0000
0010
0000
0100
0000
1001
0000
0000
0000
,  // measure 34
0100
0000
0000
0001
0100
0000
0001
0000
1000
0000
0010
0000
1100
0000
0000
0000
,  // measure 35
0010
0000
0000
1000
0001
0000
0100
0000
0010
0000
0100
0000
0010
0000
0000
0000
,  // measure 36
1000
0000
0000
0001
0100
0000
0010
0000
0100
0000
0001
0000
0101
0000
0000
0000
,  // measure 37
0010
0000
0000
0010
1000
0000
0001
0000
0100
0000
0001
0000
0010
0000
0000
0000
,  // measure 38
1000
0000
0000
0010
1000
0000
0001
0000
1000
0001
1000
0000
0100
0000
0010
0000
;
