#TITLE:COME CHAMELEON;
#SUBTITLE:;
#ARTIST:Smile.dk;
#TITLETRANSLIT:;
#SUBTITLETRANSLIT:;
#ARTISTTRANSLIT:;
#CREDIT:;
#BANNER:COME CHAMELEON.png.png;
#BACKGROUND:COME CHAMELEON.bg.png;
#LYRICSPATH:;
#CDTITLE:;
#MUSIC:COME CHAMELEON.mp3;
#OFFSET:-4.940;
#SAMPLESTART:52.500;
#SAMPLELENGTH:12.000;
#SELECTABLE:YES;
#BPMS:0.000=131.000;
#STOPS:;
#BGCHANGES:;

//---------------dance-single - ----------------
#NOTES:
     dance-single:
     :
     Easy:
     4:
     0.284,0.322,0.243,0.000,0.000:
1000
0100
1000
0000
,
0001
0100
0001
0010
,
1001
0000
0010
0010
,
0001
0100
1000
0000
,
0010
1000
0100
0000
,
0100
0001
0010
0000
,
0011
0001
0100
1000
,
0001
0001
0001
0000
,
0010
0100
0001
0100
,
1000
1000
0010
0000
,
1010
0100
0001
1000
,
0010
0100
0010
0000
,
1000
1000
1000
0100
,
0001
0001
0010
0000
,
0101
0010
1000
0100
,
1000
0010
0100
0000
,
0100
1000
0010
0100
,
0010
0000
0101
1001
,
0010
0001
0010
0100
,
0010
0100
0010
0000
,
0010
0010
0001
0100
,
1000
0000
1010
0101
,
0010
0001
0100
0000
,
0101
1000
1010
0000
,
0011
0100
0001
0001
,
0101
1000
0010
0110
,
1001
0100
0001
1000
,
0010
0100
0001
0000
,
1000
0010
1000
0100
,
0001
0010
0100
0110
,
1001
0100
0001
0010
,
0001
0100
0100
0000
,
0100
1000
0010
1000
,
0001
0010
0010
0110
,
1001
0100
0001
0010
,
0001
0001
0001
0000
,
0100
1000
0100
0010
,
0100
0001
0100
0011
,
1001
0010
1000
0100
,
0001
0001
0010
0000
,
0100
0001
0010
1000
,
0010
0100
0010
0000
,
1001
0000
0010
0100
;

//---------------dance-single - ----------------
#NOTES:
     dance-single:
     :
     Medium:
     5:
     0.347,0.347,0.266,0.000,0.000:
0010
0000
0100
0000
0010
0001
0000
0000
,
0010
0000
0001
0000
1000
0010
0000
0000
,
0101
0000
0000
0100
0010
0000
1000
0000
,
0010
0000
0100
0000
0001
1000
0000
0000
,
0010
0000
0100
0000
0001
1000
0000
0000
,
1010
0000
0001
0000
0100
0001
0000
0000
,
0010
0000
0000
1000
0010
0000
0100
0000
,
0001
0000
0010
0000
0001
0100
0001
0000
,
0010
0000
1000
0000
0010
0100
0000
0000
,
1001
0000
0100
0000
0001
0010
0000
0000
,
0010
0000
0001
0000
0100
0001
0100
0000
,
0010
0000
1000
0000
0010
0100
0000
0000
,
0001
0000
1000
0000
0010
0010
0000
0000
,
0100
0000
0001
0000
0100
0010
0000
0000
,
1001
0000
0010
0000
1000
0000
0100
1000
,
0100
1000
0100
0010
,
0101
0010
0110
1000
,
0001
1000
0001
1000
0001
0000
0000
0000
,
0011
0000
0100
0000
0010
0000
0100
0001
,
0100
0001
0100
0001
,
0110
0000
0101
0010
,
1000
0000
0010
0000
0001
1000
0001
1000
,
0010
0000
0100
0000
0101
0010
1000
0000
,
0101
0000
0010
0000
1000
0010
0100
0000
,
1001
0101
0110
0010
,
1000
0100
0000
0011
,
1010
0000
0000
0100
0001
0000
0010
0000
,
1000
0000
0010
0000
0100
0001
0000
0000
,
0110
0000
1000
0000
0001
1000
0000
0000
,
0010
0000
0010
0000
0100
0010
0100
0000
,
0101
0000
0000
0010
0001
0000
1000
0000
,
0010
0000
0100
0000
0001
1000
0000
0000
,
1010
0000
0100
0000
0001
1000
0000
0000
,
0010
0000
0001
0000
1000
0001
0000
0000
,
1010
0000
0100
0001
0100
0000
0010
0000
,
1000
0000
0100
1000
0100
1000
0000
0000
,
0010
0000
0100
0000
0001
0100
0001
0000
,
0010
0000
1000
0000
0001
1000
0000
0000
,
1010
0000
0100
0001
0100
0000
0010
0000
,
1000
0000
0001
0100
0001
0100
0000
0000
,
0010
0000
1000
0000
0100
0010
0100
0000
,
0101
0000
0010
0000
1000
0010
0000
0000
,
1001
0000
0000
0010
1000
0000
0001
0100
;

//---------------dance-single - ----------------
#NOTES:
     dance-single:
     :
     Hard:
     6:
     0.443,0.422,0.255,0.000,0.012: // measure 1
1001
0000
0010
1000
0001
0100
0000
0100
,  // measure 2
0001
0000
0001
1000
0010
0100
0000
0000
,  // measure 3
1010
0000
0000
0100
1000
0100
1000
0000
,  // measure 4
0010
0000
0001
0010
0100
1000
0000
0000
,  // measure 5
0110
0000
0001
0100
0001
0010
0000
0100
,  // measure 6
0001
0000
0001
1000
0010
0100
0000
0000
,  // measure 7
1010
0000
0000
0100
0001
1000
0010
0100
,  // measure 8
0001
0000
0000
0000
0001
0000
1000
0000
0001
1000
0001
0000
0100
0000
0000
0000
,  // measure 9
0010
0000
0100
0001
1000
0010
0000
0010
,  // measure 10
0100
0000
0001
1000
0010
0100
0000
0000
,  // measure 11
1010
0000
0000
0100
0001
0100
0010
1000
,  // measure 12
0010
0000
0000
0000
0100
0000
0001
0000
1000
0001
1000
0000
0100
0000
0000
0000
,  // measure 13
0011
0000
0100
0001
0100
0010
0000
0010
,  // measure 14
1010
0000
0100
0001
1001
0110
0000
0000
,  // measure 15
0010
1000
0000
0001
0000
0100
0000
0001
,  // measure 16
1000
0001
0000
1000
0001
0100
0000
0001
,  // measure 17
0010
0001
0000
0100
0000
0001
0000
1000
,  // measure 18
0010
0100
0000
1000
0000
0010
0100
0001
,  // measure 19
1000
0010
0000
1000
0000
0001
0000
0100
,  // measure 20
0001
0100
0000
1000
0010
1000
0000
0100
,  // measure 21
0010
0001
0000
0100
0000
0100
0000
1000
,  // measure 22
0010
0100
0000
1001
0000
0010
0100
1000
,  // measure 23
0110
0000
0001
0000
0100
0000
0001
0010
,  // measure 24
0101
0000
1000
0000
1010
0000
0100
0001
,  // measure 25
1000
0010
0100
0000
0001
1000
0100
0010
,  // measure 26
0101
0000
0010
1001
,  // measure 27
0110
0000
0000
0010
1000
0100
1000
0000
,  // measure 28
0010
0000
0100
0000
0001
1000
0000
0000
,  // measure 29
0010
0000
0001
1000
0001
0100
0000
0100
,  // measure 30
0001
0000
0010
0000
1000
0010
0000
0000
,  // measure 31
0110
0000
0000
0010
1000
0100
1000
0000
,  // measure 32
0010
0000
0001
0000
0100
0010
0000
0000
,  // measure 33
0100
0000
0001
0000
0010
0001
0000
0001
,  // measure 34
0100
0000
0100
0010
0100
0001
1000
0000
,  // measure 35
1010
0100
1000
0100
1000
0010
1000
0100
,  // measure 36
1000
0001
1000
0100
0001
1000
0001
0000
,  // measure 37
0010
0001
0010
0100
0001
1001
0000
0100
,  // measure 38
0001
0100
0010
1000
0001
0100
0010
0000
,  // measure 39
1001
0010
0001
0100
0001
1000
0001
0100
,  // measure 40
1000
0010
1000
0100
1000
0001
1000
0000
,  // measure 41
0010
0100
0001
1000
0010
0110
0000
1000
,  // measure 42
0010
0100
0010
0001
1000
0010
0000
0000
,  // measure 43
1000
0000
0000
0010
1001
0100
0010
0001
;
