#TITLE:Breakthrough;
#SUBTITLE:;
#ARTIST:Hope 7;
#TITLETRANSLIT:;
#SUBTITLETRANSLIT:;
#ARTISTTRANSLIT:;
#CREDIT:;
#BANNER:BREAKTHROUGH.png.png;
#BACKGROUND:BREAKTHROUGH.bg.png;
#LYRICSPATH:;
#CDTITLE:;
#MUSIC:BREAKTHROUGH.mp3;
#OFFSET:-3.560;
#SAMPLESTART:53.540;
#SAMPLELENGTH:12.000;
#SELECTABLE:YES;
#BPMS:0.000=144.030;
#STOPS:;
#BGCHANGES:;

//---------------dance-single - ----------------
#NOTES:
     dance-single:
     :
     Easy:
     3:
     0.224,0.248,0.173,0.000,0.000:
1000
0000
1000
0000
,
1000
0000
1000
0100
,
0100
0000
0010
0000
,
0001
0000
0010
0000
,
0010
0000
0001
0000
,
0100
0100
0001
0000
,
1001
0000
0010
0010
,
0000
0010
0010
0010
,
0100
0000
0100
0100
,
0000
0100
0100
0110
,
1001
0000
0001
1000
,
0000
1000
1000
1000
,
0010
0000
0010
0100
,
0000
0100
0100
0001
,
0001
0000
0101
0000
,
0010
0000
0110
1000
,
0001
0000
0100
0000
,
0010
0100
0010
0000
,
1000
0000
1010
0000
,
1000
0000
1001
0100
,
0010
0000
0001
0000
,
1000
1000
1000
0000
,
0100
0000
0001
0000
,
0010
0000
0100
0000
,
0001
0000
0001
0000
,
0100
0000
0110
0000
,
1000
0000
0100
0000
,
1000
0000
1000
0000
,
0010
0000
0100
0000
,
0010
0010
0010
0000
,
1001
0000
0010
0010
,
0000
0010
0100
0000
,
0100
0000
0100
0100
,
0000
0100
0100
0110
,
1001
0000
0001
1000
,
0000
1000
1000
0000
,
0010
0000
0010
0010
,
0000
0010
0010
0010
,
0011
0000
0001
0000
,
0101
0000
0100
0000
,
0010
0010
0010
0000
,
0100
0100
0100
0000
,
1000
0000
1010
0000
,
0100
0000
0110
0000
,
0010
0100
0010
0000
,
0100
0010
0100
0100
,
0000
0100
0100
0000
,
0010
0000
0010
0000
,
0000
0001
0001
0000
,
1000
0000
1000
0000
,
1001
0010
0000
0010
,
0100
0000
1000
0000
,
1000
1000
0000
1000
,
0001
0000
0110
0000
,
1000
0000
0000
0000
;

//---------------dance-single - ----------------
#NOTES:
     dance-single:
     :
     Medium:
     6:
     0.417,0.441,0.438,0.000,0.000:
0010
1000
0010
0100
,
0001
0101
0001
0011
,
1000
0000
0001
0000
0100
0001
0100
0000
,
1000
0000
0001
0000
0010
1000
0010
0000
,
0100
0001
0001
0100
,
0001
0101
0001
0011
,
0110
0100
1001
0100
,
0010
1000
0100
0000
0001
0100
0001
0000
,
0010
0000
1000
0000
0010
0000
0100
0001
,
0000
0100
0010
0000
1000
0000
1001
0000
,
1010
0100
0110
0001
,
1000
0001
0010
0000
0100
0001
0100
0000
,
0010
0000
0001
0000
0001
0000
0100
0100
,
0000
0001
0001
0000
0010
0000
1010
0000
,
0110
0000
0001
1000
0010
0000
0000
0000
,
0100
0000
0001
1000
0010
0000
0100
0000
,
0001
0000
1000
0010
1000
0000
0000
0000
,
0100
0101
1000
1010
,
0110
0000
0010
0010
0010
0000
0000
0000
,
1000
0000
0100
0100
0001
0000
1000
0000
,
0010
0000
0100
0001
0000
0000
0010
0000
,
0011
1100
1010
0110
,
1001
0000
0010
0100
0000
0000
0010
0000
,
1000
0000
0010
0100
0000
0000
1000
0000
,
0001
0000
0100
0001
0000
0000
1000
0000
,
0010
0000
0100
0001
0000
0000
0010
0000
,
1000
0000
0100
1000
0000
0000
0010
0000
,
0100
0000
0100
1000
0000
0000
0010
0000
,
1000
0010
1000
0000
0001
0100
0001
0000
,
1010
0101
0011
1001
,
0110
0100
0101
0001
,
1000
0010
0010
0000
0100
0001
0100
0000
,
0010
0000
1000
0000
0001
0000
0010
0001
,
0000
1000
0001
0000
0100
0000
0101
0000
,
0011
1000
1010
0100
,
0001
1000
0010
0000
0100
0001
0100
0000
,
0010
0000
1000
0000
0001
0000
0100
1000
,
0000
0010
1000
0000
0100
0000
1100
0000
,
1010
0000
0010
0010
0100
0000
0000
0000
,
0010
0000
1000
1000
0010
0000
0100
0000
,
0001
0000
1000
0001
0000
0000
0100
0000
,
0001
0101
1000
1010
,
0110
0000
0010
0010
0100
0000
0000
0000
,
0001
0000
1000
1000
0010
0000
0100
0000
,
0001
0000
1000
0010
0000
0000
0100
0000
,
0001
0011
1100
0101
,
0110
1000
1010
0100
,
0001
0100
0001
0000
1000
0010
1000
0000
,
0001
0000
0100
0000
0001
0000
1000
0010
,
0000
1000
0010
0000
0100
0000
0110
0000
,
0011
1000
1010
0100
,
0001
1000
0010
0000
0001
1000
0100
0000
,
0001
0000
1000
0000
0010
0000
0010
0100
,
0000
0001
0100
0000
0010
0000
0110
0000
,
1001
0000
0000
0000
;

//---------------dance-single - ----------------
#NOTES:
     dance-single:
     :
     Hard:
     7:
     0.523,0.468,0.194,0.000,0.000: // measure 1
1000
0010
1000
0100
1000
0001
1000
0000
,  // measure 2
0001
1000
0001
0000
0010
0100
1001
0000
,  // measure 3
0010
0001
0010
0001
1000
0001
1000
0000
,  // measure 4
0010
0100
0010
0100
0001
0100
0001
0000
,  // measure 5
0010
1000
0010
0000
0100
0001
0100
0000
,  // measure 6
0010
1000
0000
0001
0000
0100
0000
1010
,  // measure 7
0100
0001
0100
0001
1000
0001
1000
0000
,  // measure 8
0010
0100
0010
1000
0010
0100
0001
0000
,  // measure 9
0010
0010
1000
0010
0100
0001
0000
1010
,  // measure 10
0000
0100
0001
1000
0010
0100
0001
0000
,  // measure 11
0001
0010
0100
0010
1000
0001
1000
0000
,  // measure 12
0010
0100
0010
1000
0001
0100
0010
0000
,  // measure 13
0010
1000
0010
0000
0100
0001
0000
0010
,  // measure 14
0000
1000
0001
0100
0010
1000
1001
0000
,  // measure 15
0010
0000
1000
1000
1000
0000
0100
0000
,  // measure 16
0010
0000
0001
0001
0001
0100
0010
0000
,  // measure 17
1010
0100
0001
1000
0000
0010
0100
0000
,  // measure 18
0001
0001
1000
1000
0010
0010
0100
0001
,  // measure 19
1000
1000
1000
1000
0100
0000
0000
0000
,  // measure 20
0010
0010
0010
0010
0100
0001
1000
0000
,  // measure 21
0011
0000
1000
0001
0000
0100
0010
1000
,  // measure 22
0001
0001
1000
1000
0010
0100
0001
1000
,  // measure 23
1010
0000
0000
0100
0001
0000
0010
0000
,  // measure 24
1000
0000
0000
0100
0001
0000
1000
0000
,  // measure 25
0010
0000
0000
1000
0001
0000
0010
0000
,  // measure 26
1000
0000
0000
0010
0001
0000
0100
0000
,  // measure 27
0001
0000
0000
1000
0100
0000
0010
0000
,  // measure 28
1000
0000
0000
0010
1000
0000
1000
0100
,  // measure 29
1001
0000
0010
0100
0000
0001
0010
0000
,  // measure 30
0011
0001
0100
0001
1000
0010
0100
0001
,  // measure 31
1001
0100
0001
0010
1000
0010
1000
0100
,  // measure 32
1000
0001
1000
0100
0001
1000
0010
0000
,  // measure 33
0100
0001
0010
0100
1000
0010
1000
0100
,  // measure 34
1000
1000
0001
0100
0010
0010
0110
0000
,  // measure 35
1000
0010
0100
0010
1000
0001
1000
0000
,  // measure 36
0010
0001
0100
0001
1000
0001
1000
0000
,  // measure 37
0010
1000
0010
0100
0001
1000
0010
0100
,  // measure 38
0001
0001
1000
1000
0010
0100
1001
0000
,  // measure 39
0010
1000
0010
0100
1001
0000
0100
0000
,  // measure 40
0010
0001
0100
0001
1001
0000
0101
0000
,  // measure 41
0010
0001
0010
0100
0001
1000
0001
0000
,  // measure 42
1000
0001
1000
0000
0001
1000
0001
0000
,  // measure 43
0010
1000
0010
0100
0100
0000
0000
0000
,  // measure 44
0010
0001
0100
0001
0100
0000
0100
0010
,  // measure 45
1000
1000
1000
0100
0010
0000
0000
0000
,  // measure 46
1010
0100
0001
1000
0000
0010
0000
0110
,  // measure 47
1000
0001
1000
0001
0100
0000
0010
0000
,  // measure 48
1000
0010
1000
0000
0001
0100
0001
0000
,  // measure 49
0010
0001
0010
0010
0100
0000
0001
0000
,  // measure 50
1000
1000
0001
0001
0100
0010
1001
0000
,  // measure 51
0010
1000
0010
0100
0001
1000
0000
1000
,  // measure 52
0010
0100
0001
0000
0001
1000
0010
0000
,  // measure 53
0100
0100
0001
0010
0001
1000
0000
1000
,  // measure 54
0010
0100
0001
1000
0010
0010
0100
0000
,  // measure 55
1001
0000
0000
0000
;
