#TITLE:Beautiful;
#SUBTITLE:~Radio Version~;
#ARTIST:Ferry Corsten;
#TITLETRANSLIT:;
#SUBTITLETRANSLIT:;
#ARTISTTRANSLIT:;
#CREDIT:;
#BANNER:BEAUTIFUL.png.png;
#BACKGROUND:BEAUTIFUL.bg.png;
#LYRICSPATH:;
#CDTITLE:;
#MUSIC:BEAUTIFUL.mp3;
#OFFSET:-9.110;
#SAMPLESTART:58.800;
#SAMPLELENGTH:12.000;
#SELECTABLE:YES;
#BPMS:0.000=135.010;
#STOPS:;
#BGCHANGES:;

//---------------dance-single - ----------------
#NOTES:
     dance-single:
     :
     Easy:
     4:
     0.243,0.244,0.091,0.000,0.000:
1000
1000
1000
0000
,
0100
0001
0010
0000
,
0100
0100
0100
0000
,
0010
0100
0001
0100
,
0010
0100
0010
0000
,
0100
0001
0010
0000
,
1000
0001
0001
0000
,
0001
1000
1000
0010
,
0100
0001
0010
0000
,
0010
0100
0001
0000
,
1000
1000
0010
0000
,
0100
1000
0100
0001
,
0101
0010
0100
0000
,
1000
0010
0100
0000
,
0001
1000
1000
0000
,
1000
0001
0001
1000
,
1000
0010
1000
0000
,
0100
0001
0100
0000
,
0010
0001
0100
0000
,
0100
0001
0001
0100
,
0110
1000
0001
0000
,
0100
0001
1000
0000
,
0010
1000
0100
0000
,
1000
0010
0001
0100
,
0001
0001
0001
0000
,
1000
1000
1000
0000
,
0100
0100
0010
0000
,
0100
0001
0010
1000
,
1001
0010
0100
0001
,
1000
1000
1000
0100
,
0001
0010
0001
0100
,
0010
0000
1000
0000
,
0101
0001
0001
0010
,
1000
0100
0100
0010
,
1000
0100
1000
0010
,
0100
0000
0001
0000
,
1001
0010
1000
0000
,
0100
1000
0010
0000
,
0100
0100
0100
0001
,
0010
0000
0100
0000
,
0011
0001
0100
0000
,
0010
0010
1000
0000
,
0100
1000
0010
0100
,
0001
0000
1000
1001
,
0110
0100
1000
0010
,
0001
0100
0010
1000
,
0001
0000
0100
0000
,
0010
0000
1000
1001
,
0010
0000
0000
0000
;

//---------------dance-single - ----------------
#NOTES:
     dance-single:
     :
     Medium:
     6:
     0.370,0.342,0.335,0.000,0.000:
1000
0010
0100
0000
1000
0000
0001
0000
,
0010
0001
0100
0000
0001
0000
0100
0000
,
0001
0001
0001
0000
0100
0000
0010
0000
,
1000
1000
0001
0000
0010
0000
0011
0000
,
1000
0000
0100
0000
1000
1000
0001
0000
,
0100
0000
0001
0000
0100
0100
0010
0000
,
1000
0000
0001
0000
0001
0001
0001
0000
,
0010
0010
0010
0000
1000
0000
0101
0000
,
0010
0000
1000
0000
0010
1000
1000
0000
,
0010
0000
0100
0000
0010
0001
0001
0000
,
0100
0000
0001
0000
0100
0010
0100
0000
,
0001
1000
0001
0000
0100
0000
0110
0000
,
1001
0000
0000
0010
0010
0000
0000
0100
,
0100
0000
0000
1000
1000
0000
0000
0010
,
0010
0000
0000
0001
0001
0000
0000
0100
,
0100
0000
0000
1000
1000
0000
1010
0000
,
0101
0000
0000
0010
0010
0000
0000
0001
,
0001
0000
0000
0010
0010
0000
0000
0100
,
0100
0000
0000
0010
0010
0000
0000
0100
,
0100
0000
0000
0010
0100
0000
0101
0000
,
1010
0000
1000
0010
1000
0000
0000
0100
,
0100
0000
0000
0001
0100
0000
0000
0001
,
0010
0000
0001
0010
0100
0000
0000
0010
,
0010
0000
0000
0010
0100
0000
0101
0000
,
0110
0000
0010
1000
0100
0000
0000
0100
,
0100
0000
0000
0010
0100
0000
0000
0010
,
0010
0000
0000
0001
0100
0000
0000
0001
,
1000
0010
1000
0000
0101
0000
1010
0000
,
0101
0000
0010
0000
1000
0010
1000
0000
,
0101
0000
0010
0000
0001
0010
0100
0000
,
0101
0010
1000
0100
,
0011
0001
0101
0100
,
1010
0000
0100
0000
0010
0100
0001
0000
,
1001
0000
0100
0000
0001
1000
0010
0000
,
0100
0001
1000
1000
,
0001
0101
1000
1100
,
1010
0000
0100
0000
0010
0100
0001
0000
,
1010
0000
0100
0000
0001
0100
0010
0000
,
0011
0100
0001
0010
,
0100
0110
0001
0110
,
1000
0001
0001
0000
0100
0000
0101
0000
,
0001
0001
1000
0000
0010
0000
0110
0000
,
1000
0010
0100
0001
,
1000
1001
0011
0101
,
1001
0000
0100
0000
0010
1000
0010
0000
,
0100
0000
0001
0000
0100
0001
0100
0000
,
0010
0000
1000
0000
0001
1000
0001
0000
,
0010
0000
0100
0000
1000
0001
1000
0010
,
1001
0000
0000
0000
;

//---------------dance-single - ----------------
#NOTES:
     dance-single:
     :
     Hard:
     7:
     0.459,0.439,0.102,0.000,0.152: // measure 1
1000
0100
1000
0010
0100
0000
0001
0000
,  // measure 2
0010
0001
0100
0001
0010
0000
0100
0000
,  // measure 3
0001
0100
1000
0000
0010
0000
1000
0000
,  // measure 4
0001
0100
1000
0000
0010
0000
0101
0000
,  // measure 5
0010
0100
0001
0001
1000
0000
0100
0000
,  // measure 6
1000
0001
0100
0100
1000
0000
0010
0000
,  // measure 7
0001
0010
0100
0100
0001
0000
0010
0000
,  // measure 8
1000
0010
0001
0000
0100
0000
0110
0000
,  // measure 9
0010
1000
0010
0010
0100
0000
0001
0000
,  // measure 10
1000
1000
0001
0010
0100
0000
0010
0000
,  // measure 11
0100
0001
0010
0100
0010
0000
0100
0000
,  // measure 12
0001
1000
0001
0000
0100
0000
0101
0000
,  // measure 13
0010
0000
0000
1000
0000
0000
0010
0000
0010
0000
0000
0100
0000
0000
0001
0000
,  // measure 14
0001
0000
0000
0010
0000
0000
1000
0000
0100
0000
0000
0001
0000
0000
0100
0000
,  // measure 15
0100
0000
0000
0010
0000
0000
0010
0000
1000
0000
0000
1000
0000
0000
1000
0000
,  // measure 16
0001
0000
0000
0001
0000
0000
0100
0000
0010
0000
0000
0010
0000
0000
1000
0000
,  // measure 17
0001
0000
0000
0001
0000
0000
0100
0000
0010
0000
0000
0100
0000
0000
0001
0000
,  // measure 18
1000
0000
0000
0100
0000
0000
0010
0000
0010
0000
0000
0100
0000
0000
0001
0000
,  // measure 19
0001
0000
0000
0100
0000
0000
0010
0000
1000
0000
0000
0001
0000
0000
0100
0000
,  // measure 20
0010
0000
0000
0010
0000
0000
1000
0000
0001
0000
0000
0100
0000
0000
0001
0000
,  // measure 21
0010
0000
0000
1000
0000
0000
0100
0000
0001
0000
0000
0001
0000
0000
0100
0000
,  // measure 22
0010
0000
0000
1000
0000
0000
0001
0000
0100
0000
0000
0100
0000
0000
0001
0000
,  // measure 23
0010
0000
0000
0001
0000
0000
0100
0000
0001
0000
0000
0100
0000
0000
0010
0000
,  // measure 24
1000
0000
0000
0100
0000
0000
0001
0000
0010
0000
0000
0100
0000
0000
1000
0000
,  // measure 25
0010
0000
0000
0001
0000
0000
0100
0000
1000
0000
0000
1000
0000
0000
0100
0000
,  // measure 26
0010
0000
0000
1000
0000
0000
0100
0000
1000
0000
0000
1000
0000
0000
0100
0000
,  // measure 27
1000
0000
0000
0100
0000
0000
0010
0000
0010
0000
0000
0100
0000
0000
0001
0000
,  // measure 28
1000
0001
0000
1000
0001
1000
0001
0000
,  // measure 29
0100
0010
0100
0010
1000
0001
0100
0000
,  // measure 30
0001
0010
0100
0010
1000
0001
0100
0000
,  // measure 31
1000
0010
1000
0100
0001
1000
0001
0100
,  // measure 32
0010
0000
1000
0000
0001
0100
0101
0000
,  // measure 33
0010
0100
0001
0100
0010
0001
0100
0000
,  // measure 34
0010
0001
0010
0010
0010
1000
0100
0000
,  // measure 35
0001
0001
0100
1000
0010
1000
0100
0001
,  // measure 36
1000
0000
0010
0000
0100
0001
0110
0000
,  // measure 37
0010
1000
0010
0100
0001
1000
0001
0000
,  // measure 38
0010
0001
0010
0001
1000
0010
0100
0000
,  // measure 39
0010
1000
0100
1000
0001
1000
0001
0010
,  // measure 40
0100
0000
1000
0000
0001
0010
0101
0000
,  // measure 41
0010
1000
0010
0100
0001
1000
0001
0000
,  // measure 42
0010
0001
0010
0100
0001
1000
0001
0000
,  // measure 43
0010
1000
0010
0100
0001
0100
1000
0001
,  // measure 44
0010
0001
0011
0000
1100
0001
0101
0000
,  // measure 45
1000
0010
0100
0001
0010
0001
0010
0001
,  // measure 46
1000
0010
0100
0001
1000
0001
1000
0001
,  // measure 47
0010
0100
0100
0001
0001
1000
0010
1000
,  // measure 48
0100
0001
0001
0010
0010
0100
0001
0100
,  // measure 49
1001
0000
0000
0000
;
