#TITLE:7 COLOURS;
#SUBTITLE:;
#ARTIST:LOST WITNESS;
#TITLETRANSLIT:;
#SUBTITLETRANSLIT:;
#ARTISTTRANSLIT:;
#CREDIT:;
#BANNER:7 COLOURS.jpg.jpg;
#BACKGROUND:7 COLOURS.bg.jpg;
#LYRICSPATH:;
#CDTITLE:;
#MUSIC:Lost Witness - 7 Colours.mp3;
#OFFSET:-7.310;
#SAMPLESTART:57.140;
#SAMPLELENGTH:12.000;
#SELECTABLE:YES;
#BPMS:0.000=136.130;
#STOPS:;
#BGCHANGES:;

//---------------dance-single - ----------------
#NOTES:
     dance-single:
     :
     Easy:
     3:
     0.194,0.194,0.099,0.000,0.000:
0010
0000
0001
0000
,
0010
0000
0010
0000
,
0100
0100
0100
0000
,
0001
0000
0000
0000
,
1001
0100
0010
0000
,
0100
0010
0001
0000
,
0010
1000
0100
0000
,
0001
0000
0000
0010
,
1001
0010
0100
0000
,
0010
0100
0100
0000
,
0001
0000
1000
1000
,
0001
0000
0000
0010
,
0110
0000
0100
0000
,
0100
0100
0100
0000
,
0100
0100
0001
0000
,
0001
0001
0100
0000
,
0100
0000
0010
0000
,
0100
0000
0010
0000
,
0010
0010
1000
0000
,
1001
0000
0000
0000
,
1000
1000
1000
0000
,
1000
0100
1000
0000
,
0100
0100
0100
0000
,
0100
0010
0100
0000
,
0001
0001
0001
0000
,
0001
1000
0001
0000
,
1000
1000
0010
0000
,
1001
0000
0000
0000
,
1000
0001
0100
0000
,
0010
0000
0001
0000
,
0001
0001
0010
0000
,
0100
0000
0010
0000
,
1000
1000
0010
0000
,
1000
0000
0100
0000
,
0010
0010
0100
0000
,
0010
0000
0000
1000
,
1001
0100
0001
0000
,
0001
0100
0001
0000
,
0001
0001
0001
0000
,
0010
0000
0000
0100
,
1001
0100
1000
0000
,
0100
1000
0100
0000
,
1000
1000
0010
0100
,
1001
0000
0000
0000
,
1001
0000
0000
0000
;

//---------------dance-single - ----------------
#NOTES:
     dance-single:
     :
     Medium:
     4:
     0.269,0.267,0.132,0.000,0.000:
0010
0010
0010
1000
,
0010
0001
0100
1000
,
0001
0001
0001
0100
,
0001
0000
0000
0010
,
0101
0100
0100
0001
,
0100
0100
0100
0000
0100
0000
0000
0000
,
0100
0100
0100
0000
0100
0000
0001
0000
,
1000
0000
0000
0010
,
1100
0100
0100
0001
,
0100
0100
0100
0000
0100
0000
0000
0000
,
0100
0100
0100
0000
0010
0000
0100
0000
,
1001
0000
0000
0000
,
1001
0100
0001
0000
,
0100
0100
0100
0000
,
1000
0100
0001
0000
,
0100
0100
0100
0000
,
0001
0100
1000
0001
,
0010
0010
0010
0000
,
0010
0010
0010
0000
0100
0000
0010
0000
,
1001
0000
0000
0100
,
0001
0010
0010
0000
,
0001
0010
0010
0000
,
1000
0010
0010
0000
,
1000
0010
0010
0100
,
0010
0001
1000
0010
,
0001
0010
1000
0000
,
0100
0100
0100
0000
0010
0000
0100
0000
,
1001
0000
0000
0000
,
0010
0010
0010
0000
1000
0000
0001
0000
,
0100
0100
0100
0000
,
0010
1000
0010
0000
0100
0000
0001
0000
,
0100
0100
1000
0100
,
0010
0010
0010
0000
1000
0000
0100
0000
,
0001
1000
0001
0000
,
0010
0100
0010
0000
0001
0000
0010
0000
,
0010
0000
0000
1000
,
1001
0000
0100
0001
0001
0000
0100
0000
,
0010
0000
0001
0001
0001
0000
0000
0000
,
0010
0000
0001
0001
0001
0000
1000
0000
,
1001
0000
0000
0100
,
0110
0000
0010
0010
0010
0000
0001
0000
,
0100
0000
0010
0010
0010
0000
0000
0000
,
0100
0100
0100
0000
0001
0000
0110
0000
,
1001
0000
0000
0000
,
1001
0000
0000
0000
;

//---------------dance-single - ----------------
#NOTES:
     dance-single:
     :
     Hard:
     6:
     0.354,0.339,0.242,0.000,0.000: // measure 1
1000
0001
1000
0000
0010
0000
1000
0000
,  // measure 2
0001
0000
0001
0100
0000
0000
0010
0000
,  // measure 3
0010
0100
0010
0000
0010
0000
0100
0010
,  // measure 4
0000
0000
0000
1000
,  // measure 5
1001
0000
1000
0100
0000
1000
0100
0000
,  // measure 6
0110
0000
0100
0010
0000
0100
0010
0000
,  // measure 7
1001
0000
0010
0100
0000
0010
0100
0000
,  // measure 8
0010
0010
0000
0100
,  // measure 9
1001
0000
0001
0100
0000
0100
0001
0000
,  // measure 10
0110
0000
0010
0100
0000
0100
0010
0000
,  // measure 11
1001
0000
0100
0010
0000
0100
0010
0100
,  // measure 12
0001
0000
0000
1001
,  // measure 13
0110
1000
0001
0100
,  // measure 14
1000
0100
0100
0010
,  // measure 15
0001
0100
0100
0001
,  // measure 16
0010
0100
0001
0010
,  // measure 17
0001
1000
1000
0010
,  // measure 18
0001
0100
0100
0001
,  // measure 19
1000
0000
1000
0001
0000
0001
1000
0001
,  // measure 20
0010
0000
0000
0110
,  // measure 21
1001
0000
0100
0100
0100
0000
0001
0000
,  // measure 22
0010
0000
0100
0100
0100
0000
0001
0000
,  // measure 23
0010
0000
1000
1000
1000
0000
0010
0000
,  // measure 24
0001
0000
1000
1000
1000
0000
0010
0000
,  // measure 25
1000
0000
0001
0001
0001
0000
0010
0000
,  // measure 26
1000
0000
0001
0001
0001
0000
0010
0000
,  // measure 27
0100
0000
0100
0001
0000
0001
0100
0001
,  // measure 28
1000
0001
1000
0000
0001
1000
0001
0000
,  // measure 29
1000
1000
1000
0000
1001
0000
0100
0000
,  // measure 30
0001
0001
0001
0010
,  // measure 31
0100
0001
0100
0000
0010
0000
1000
0001
,  // measure 32
0000
0100
0000
0001
0000
0000
1001
0000
,  // measure 33
0100
0100
0100
0000
0001
0000
1000
0000
,  // measure 34
0100
0000
0100
0010
0000
0010
0100
0000
,  // measure 35
0010
0100
0010
0000
1000
0000
0010
0100
,  // measure 36
0000
0010
0010
0110
,  // measure 37
1001
0000
1000
0100
0000
1000
0100
0000
,  // measure 38
0110
0000
0001
0100
0000
0001
0100
0000
,  // measure 39
1001
0000
1000
0100
0000
1000
0100
0000
,  // measure 40
0001
1000
0001
0000
0000
0000
0110
0000
,  // measure 41
1001
0000
1000
0100
0000
1000
0100
0000
,  // measure 42
0110
0000
0001
0100
0000
0001
0100
0000
,  // measure 43
1001
0000
1000
0100
0000
0010
0100
0010
,  // measure 44
0001
1000
0001
0110
,  // measure 45
1001
0000
0000
0000
;
