#TITLE:2 AM;
#SUBTITLE:;
#ARTIST:ADRIAN MARCEL;
#TITLETRANSLIT:;
#SUBTITLETRANSLIT:;
#ARTISTTRANSLIT:;
#CREDIT:;
#BANNER:2 AM.png.png;
#BACKGROUND:2 AM.bg.png;
#LYRICSPATH:;
#CDTITLE:;
#MUSIC:2 AM.mp3;
#OFFSET:-9.560;
#SAMPLESTART:56.300;
#SAMPLELENGTH:12.000;
#SELECTABLE:YES;
#BPMS:0.000=101.980;
#STOPS:;
#BGCHANGES:;

//---------------dance-single - ----------------
#NOTES:
     dance-single:
     :
     Easy:
     2:
     0.133,0.131,0.115,0.000,0.000:
0110
0000
0000
0000
,
0000
0000
0100
0000
,
0100
0000
0000
0110
,
0000
0000
0100
0000
,
0010
0000
0100
0000
,
0010
0000
0010
1000
,
0100
0000
0100
0000
,
0100
0000
0100
0001
,
0010
0000
0100
0000
,
0010
0000
0010
0010
,
0100
0000
0001
0000
,
0100
0000
0100
0010
,
1001
0000
0000
0100
,
0010
0000
1000
0000
,
0110
0000
0000
0100
,
0001
0000
0100
0000
,
1001
0000
0000
0001
,
0010
0000
0100
0000
,
0001
0000
0000
0110
,
0000
0100
0001
0000
,
0001
0000
0001
0000
,
1000
0000
1000
0100
,
0010
0000
0000
0110
,
0000
0000
0100
0001
,
0010
0000
0010
0000
,
0010
0000
0010
0100
,
0100
0000
0000
0110
,
0000
0000
0100
0001
,
0100
0000
0100
0000
,
0100
0000
0100
0001
,
0100
0000
0000
1001
,
0000
0000
0001
1000
,
0010
0000
0010
0000
,
0100
0000
0100
0001
,
0010
0000
0000
1001
,
0000
0000
0100
0101
,
0010
0000
0000
0000
;

//---------------dance-single - ----------------
#NOTES:
     dance-single:
     :
     Medium:
     5:
     0.277,0.263,0.209,0.000,0.031:
1000
0100
0010
0100
0010
0000
0000
0000
,
0000
0000
0000
0000
0000
0000
0000
0000
0001
0000
0000
0001
0000
0000
0010
0000
,
1001
0000
0000
0110
,
0000
0000
0000
0000
0000
0000
0100
0000
0001
0000
0000
0100
0000
0000
0001
0000
,
1000
0000
0010
1000
0100
0000
1010
0000
,
1000
0100
0001
0000
0001
0100
1000
0100
,
0001
0010
1000
0101
,
1000
0100
0001
0000
0001
0010
1000
0000
,
1001
0000
0101
0000
0000
0000
0101
0010
,
1000
0000
1000
0100
0001
0100
0010
0000
,
1000
0000
1001
0000
0000
0000
0101
0010
,
1000
0100
1000
0100
0001
1000
0010
0000
,
0010
0001
0100
0010
0000
0000
0110
0000
,
0100
0100
0001
0000
0100
0100
1000
0000
,
0001
1000
0001
0010
0000
0000
0110
0000
,
1000
1000
0010
0000
0001
0000
0000
0001
,
1000
0000
0010
0010
0000
0000
0101
0000
,
0010
1000
0100
0000
0100
1000
0010
0000
,
0100
0000
1000
0001
0000
0000
0001
0000
,
0010
0000
0001
0100
0000
1000
0001
0100
,
0001
0000
0000
0001
0100
0000
0000
0010
,
0000
0000
0010
0000
0000
0000
0100
0000
0001
0000
0000
0001
0000
0000
0001
0000
,
0010
0000
1001
0110
,
0000
0000
0010
0000
0001
0000
1000
0010
,
1000
0000
0000
0100
1000
0000
0000
0010
,
0000
0000
0001
0000
0000
0000
0100
0000
0001
0000
0000
0001
0000
0000
0001
0000
,
0010
0000
1001
0110
,
0001
0000
0100
0000
1000
0010
1000
0100
,
1000
0001
0100
0010
,
0000
0000
0000
0000
0010
0000
0000
0000
0100
0000
0000
0100
0000
0000
0100
0000
,
0010
0000
1001
0110
,
1000
0000
0100
0000
0001
0010
0001
0000
,
0100
0000
0000
0001
0100
0000
0000
0010
,
0000
0000
0010
0000
0000
0000
0001
0000
0010
0000
0000
0010
0000
0000
0010
0000
,
0100
0000
1001
0110
,
0000
0000
0010
0000
0100
0001
0100
0001
,
0100
0000
0000
0000
;

//---------------dance-single - ----------------
#NOTES:
     dance-single:
     :
     Hard:
     7:
     0.322,0.319,0.219,0.000,0.078: // measure 1
0110
1000
0100
1000
0100
0000
0000
0100
,  // measure 2
0000
0000
0100
0000
0000
0000
0100
0000
0001
0000
0000
1000
0000
0000
0010
0000
,  // measure 3
0100
0000
0000
0110
,  // measure 4
0000
0000
0000
0000
0000
0000
0100
0000
0001
0000
0000
0001
0000
0000
1000
0000
,  // measure 5
0010
0000
0100
0001
0010
0100
1000
0000
,  // measure 6
1000
0000
0000
0000
0100
0000
1000
0000
0010
0000
0000
0100
0000
0000
0001
0000
,  // measure 7
1000
0000
1000
0010
0001
0010
1000
0000
,  // measure 8
0100
0000
0000
0000
1000
0000
0010
0000
0001
0000
0000
0100
0000
0000
0010
0000
,  // measure 9
1001
0000
0100
0000
0000
0000
0100
0010
,  // measure 10
1000
0000
1000
0010
0100
0000
0100
0000
,  // measure 11
1001
0000
0010
0000
0000
0100
0110
0000
,  // measure 12
1000
0000
0000
0000
0010
0000
0000
0000
0010
0000
0000
0100
0000
0000
0100
0000
,  // measure 13
0110
1000
0100
0001
0000
0000
0100
0000
,  // measure 14
0010
0001
0001
0000
0100
0100
0100
0000
,  // measure 15
0010
1000
0100
1000
0000
0100
0110
0000
,  // measure 16
0010
1000
0010
0100
0001
1000
0001
0100
,  // measure 17
0010
0000
0001
0010
0000
0000
0010
0000
,  // measure 18
0100
0001
0100
0000
0010
1000
0100
0000
,  // measure 19
1000
0000
1000
0001
0000
0100
0110
0000
,  // measure 20
1000
0000
0001
1000
0000
0010
0100
0000
,  // measure 21
0110
0000
0000
0010
0100
0000
0000
0100
,  // measure 22
0000
0000
0100
0000
0000
0000
0001
0000
0010
0000
0000
0010
0000
0000
1000
0000
,  // measure 23
0001
0000
0000
0100
1001
0000
0000
0100
,  // measure 24
0110
0000
0000
0010
1001
0100
0010
1000
,  // measure 25
0010
0000
0000
0010
0100
0001
1000
0010
,  // measure 26
0000
0000
0010
0000
0100
0000
0001
0000
0010
0000
0000
1000
0000
0000
1000
0000
,  // measure 27
1001
0000
0010
1000
0000
0100
0110
0000
,  // measure 28
0100
0100
0100
0001
0010
0000
0110
0000
,  // measure 29
1001
0100
0001
0100
1000
0100
0001
0000
,  // measure 30
1000
0000
0010
0000
0001
0000
0010
0000
0100
0000
0000
0001
0000
0000
0100
0000
,  // measure 31
0010
0000
0000
0000
0100
0000
0000
0000
0000
0001
1000
0001
1000
0000
0000
0000
,  // measure 32
0000
0000
0000
0000
1000
0000
0100
0000
0001
0000
0000
0001
0000
0000
1000
0000
,  // measure 33
0010
0000
0000
0010
1000
0000
0010
0100
,  // measure 34
0000
0000
0100
0000
0000
0000
0001
0000
0101
0000
0000
0001
0000
0000
0110
0000
,  // measure 35
1000
0000
0000
0000
0010
0000
0000
0000
0000
1000
0001
1000
0001
0000
0000
0000
,  // measure 36
0010
0000
1000
0000
0100
0000
1000
0000
0101
0000
0000
0011
0000
0000
1001
0000
,  // measure 37
0010
0000
0000
0000
;
