#TITLE:whenever you are ready;
#SUBTITLE:;
#ARTIST:TOMAS SKYLDEBERG;
#TITLETRANSLIT:;
#SUBTITLETRANSLIT:;
#ARTISTTRANSLIT:;
#CREDIT:;
#BANNER:WHENEVER YOU ARE READY.png.png;
#BACKGROUND:WHENEVER YOU ARE READY.bg;
#LYRICSPATH:;
#CDTITLE:;
#MUSIC:WYR.mp3;
#OFFSET:-4.430;
#SAMPLESTART:17.954;
#SAMPLELENGTH:12.000;
#SELECTABLE:YES;
#BPMS:0.000=115.040;
#STOPS:;
#BGCHANGES:;

//---------------dance-single - ----------------
#NOTES:
     dance-single:
     :
     Easy:
     2:
     0.108,0.127,0.122,0.000,0.000: // measure 1
0010
0000
0000
0000
,  // measure 2
1000
0000
1000
0000
,  // measure 3
0010
0000
0000
0000
,  // measure 4
0100
0000
0000
0000
,  // measure 5
0010
0000
0000
0000
,  // measure 6
0001
0000
1000
0000
,  // measure 7
1001
0000
0000
0000
,  // measure 8
0100
0000
0010
0000
,  // measure 9
0101
0000
0000
0000
,  // measure 10
0010
0000
0100
0000
,  // measure 11
0110
0000
0000
0000
,  // measure 12
1000
0000
0001
0000
,  // measure 13
0101
0000
0000
0000
,  // measure 14
0010
0000
1000
0000
,  // measure 15
1010
0000
0000
0000
,  // measure 16
0100
0000
0000
0010
,  // measure 17
0100
0000
0000
0000
,  // measure 18
0010
0000
0100
0000
,  // measure 19
1100
0000
0000
0000
,  // measure 20
0100
0000
0000
0100
,  // measure 21
0100
0000
0000
0000
,  // measure 22
0001
0000
0100
0000
,  // measure 23
1001
0000
0000
0000
,  // measure 24
0100
0000
0000
0010
,  // measure 25
0100
0000
0000
0000
,  // measure 26
0100
0000
0100
0000
,  // measure 27
0110
0000
0000
0000
,  // measure 28
0010
0000
0000
0010
,  // measure 29
0010
0000
0000
0000
,  // measure 30
0010
0000
0100
0000
,  // measure 31
0101
0000
0000
0000
,  // measure 32
0010
0000
0100
0000
,  // measure 33
0010
0000
0000
0000
,  // measure 34
0010
0000
0100
0000
,  // measure 35
1010
0000
0000
0000
,  // measure 36
0100
0000
0000
0100
,  // measure 37
0010
0000
0000
0000
,  // measure 38
0010
0000
0100
0000
,  // measure 39
0110
0000
0000
0000
;

//---------------dance-single - ----------------
#NOTES:
     dance-single:
     :
     Medium:
     5:
     0.239,0.275,0.278,0.000,0.000:
0110
0000
0000
0000
0000
0000
0000
0010
,
0000
0000
0000
0100
0000
0000
0010
0000
,
0110
0000
0000
0000
0000
0000
0000
0100
,
0000
0000
0000
0010
0000
0000
0000
0000
,
1001
0000
0000
0000
,
0010
0000
1000
0000
0100
0001
0000
0010
,
1001
0000
0000
0000
0000
0000
0000
0010
,
0000
0000
0000
0100
0000
0000
0000
0000
,
0101
0000
0000
0000
0000
0000
0010
1000
,
0000
0000
0010
0100
0000
0000
0010
0100
,
0101
0000
0000
0000
0000
0000
0000
0010
,
0000
0000
0000
0100
0000
0000
0010
0000
,
0110
0000
0000
0000
0000
0000
0010
1000
,
0000
0000
0010
0100
0000
0000
0010
0100
,
1010
0000
0000
1000
0000
0000
0000
0000
,
0010
0000
0000
0100
0000
0010
0000
0100
,
1001
0000
0000
0100
0000
0000
0000
0000
,
0010
0000
0001
0100
0000
0010
0000
1000
,
0101
0000
0000
0010
0000
0000
0000
0000
,
0101
0000
0000
0010
0000
0001
0000
0010
,
0110
0000
0000
0100
0000
0000
0000
0000
,
0010
0001
0000
1000
0000
0001
1000
0010
,
0101
0000
0010
0010
0000
0000
0000
0000
,
0110
0000
0000
0100
0000
0001
0000
0010
,
1010
0000
0000
0100
0000
0000
0000
0000
,
0010
0000
1000
0010
0000
0001
0000
0100
,
1010
0000
0010
0010
0000
0000
0000
0000
,
0110
0000
0000
0100
0000
0001
0000
0010
,
0011
0000
0000
0100
0000
0000
0010
0000
,
0100
0000
0001
0100
0000
1000
0000
0010
,
0101
0000
0010
0010
0000
0000
1000
0000
,
0110
0000
0000
0100
0000
0001
0000
0010
,
1001
0000
0000
0100
0000
0000
0010
0000
,
1000
0000
0001
1000
0000
0010
0000
0100
,
0110
0000
0100
0100
0000
0000
0010
0000
,
0101
0000
0000
0100
0000
0010
0000
1000
,
1001
0000
0000
0010
0000
0000
0100
0000
,
0010
0010
0010
0000
0100
0100
0100
0010
,
1001
0000
0000
0000
;

//---------------dance-single - ----------------
#NOTES:
     dance-single:
     :
     Hard:
     7:
     0.332,0.317,0.089,0.000,0.184:
1001
0000
0100
0000
0100
0000
0100
0010
,
0000
0000
0010
0100
0000
0000
0010
0000
,
1001
0000
0001
0000
0001
0000
0001
0010
,
0000
0000
0001
0010
0000
0000
0001
0000
,
1001
0000
1000
0000
1000
0000
1000
0010
,
1000
0000
0000
0001
0000
0000
0100
0000
1000
0000
0001
0000
0010
0000
1001
0000
,
0000
0010
0000
0100
0000
0010
0000
0010
,
0000
0001
0000
0100
0000
0010
0000
1000
,
0010
1000
0000
1000
0000
1000
0000
0100
,
1000
0000
0000
0010
0000
0000
0100
0000
0001
0000
0010
0000
0001
0000
0101
0000
,
0000
0100
0000
0001
0000
0001
0000
0100
,
0000
0100
0000
0100
0000
0010
0000
1000
,
0010
0001
0000
1000
0000
0001
0000
1000
,
0010
0000
0000
0100
0000
0000
0010
0000
1000
0000
0001
0000
1000
0000
0110
0000
,
0010
0000
0000
0010
0000
0000
0010
0000
0000
0000
0000
0000
0000
0000
0100
0000
,
0010
0000
0000
0010
0000
0000
0010
0000
0000
0000
0100
0000
0000
0010
0000
0000
,
1000
0000
0000
0001
0000
0000
1000
0000
0010
0000
0000
0000
0100
0000
0000
0000
,
0010
0000
0000
0010
0000
0000
0010
0000
1000
0000
0001
0000
1000
0000
0000
0000
,
0100
0000
0000
0100
0000
0000
0100
0000
0000
0000
0000
0000
0000
0000
0001
0000
,
0100
0000
0000
0100
0000
0000
0100
0000
0000
0000
0010
0000
0000
0100
0000
0000
,
1000
0000
0000
0001
0000
0000
1000
0000
0010
0000
0000
0000
0100
0000
0000
0000
,
0100
0000
0000
0100
0000
0000
0100
0000
1000
0000
0001
0000
1000
0000
0010
0000
,
1001
0000
0000
0001
0000
0000
0001
0000
0000
0000
0100
0000
0000
0000
0010
0000
,
0010
0000
0000
0010
0000
0000
0010
0000
0000
0000
0100
0000
0000
0010
0000
0000
,
1000
0000
0000
0001
0000
0000
1000
0000
0010
0000
0100
0000
0000
0000
0100
0000
,
1000
0000
0000
0001
0000
0000
1000
0000
0010
0000
0010
0000
0100
0000
0100
0000
,
1000
0000
0000
1000
0000
0000
1000
0000
0000
0000
0010
0000
0000
0000
0100
0000
,
1000
0000
0000
1000
0000
0000
1000
0000
0000
0000
0010
0000
0000
0100
0000
0000
,
1000
0000
0000
0001
0000
0000
1000
0000
0010
0000
0100
0000
0000
0000
0100
0000
,
1000
0000
0000
1000
0000
0000
1000
0000
0001
0000
1000
0000
0001
0000
0010
0000
,
0001
0000
0000
0001
0000
0000
0001
0000
0000
0000
0010
0000
0000
0000
0001
0000
,
0001
0000
0000
0001
0000
0000
0001
0000
0000
0000
0010
0000
0000
0100
0000
0000
,
1000
0000
0000
0001
0000
0000
1000
0000
0010
0000
0100
0000
0000
0000
0100
0000
,
0001
0000
0000
0001
0000
0000
0001
0000
1000
0000
0001
0000
1000
0000
0000
0000
,
0010
0000
0000
0010
0000
0000
0010
0000
0000
0000
0001
0000
0000
0000
1000
0000
,
1000
0000
0000
1000
0000
0000
1000
0000
0000
0000
0010
0000
0000
0100
0000
0000
,
0001
0000
0000
0001
0000
0000
0001
0000
0010
0000
0100
0000
0000
0000
0100
0000
,
0100
0000
0000
0100
0000
0000
0100
0000
1000
0000
0001
0000
1000
0000
1001
0000
,
0010
0000
0000
0000
;
