#TITLE:magic carpet ride;
#SUBTITLE:(FATBOY SLIM LATIN SKA ACID BREAKBEAT MIX);
#ARTIST:mighty dub katz;
#TITLETRANSLIT:;
#SUBTITLETRANSLIT:;
#ARTISTTRANSLIT:;
#CREDIT:;
#BANNER:MAGIC CARPET RIDE.png.png.png;
#BACKGROUND:MAGIC CARPET RIDE (FATBOY SLIM LATIN SKA ACID BREAKBEAT MIS).bg.png;
#LYRICSPATH:;
#CDTITLE:;
#MUSIC:MAGIC CARPET RIDE (Fatboy Slim Latin Ska Acid Breakbeat Mix).mp3;
#OFFSET:-3.780;
#SAMPLESTART:42.980;
#SAMPLELENGTH:12.000;
#SELECTABLE:YES;
#BPMS:0.000=132.800,56.000=66.400,64.000=66.800,72.000=66.400,88.000=132.800;
#STOPS:;
#BGCHANGES:;

//---------------dance-single - ----------------
#NOTES:
     dance-single:
     :
     Easy:
     4:
     0.267,0.331,0.162,0.000,0.000:
0000
0100
0000
0100
0000
0100
0000
0000
,
0000
0010
0000
0010
0000
0010
0000
0000
,
0000
0001
0000
0001
0000
0001
0000
0000
,
0000
1000
0000
1000
0000
1000
0000
0000
,
0000
0100
0000
0100
0000
0100
0000
0000
,
0000
0010
0000
0010
0000
0010
0000
0000
,
0000
1000
0000
0100
0000
1000
0000
0100
,
0000
0001
0000
0100
0000
0001
0000
0100
,
0000
1000
0000
0001
0000
1000
0000
0001
,
0000
0010
0000
0100
0000
0010
0000
0100
,
0000
1000
0000
1000
0000
1000
0000
0100
,
0000
0001
0000
0001
0000
0001
0000
0100
,
0000
0010
0000
0100
0000
0001
0000
1000
,
0000
0010
0000
0010
0000
0001
0000
1000
,
1001
0000
0100
0001
0100
0000
0010
1000
,
0100
0000
0001
1000
1001
0000
0100
1000
,
0010
0000
0100
0010
0100
0000
0001
0010
,
0100
0000
0010
0100
1001
0100
0010
0000
,
1001
0000
0010
1000
0010
0000
0100
0001
,
0010
0000
0010
0100
0010
0000
1000
0001
,
0100
0000
0001
0010
0001
0000
0100
0001
,
1000
0000
0001
1000
0001
0000
0100
0010
,
0010
0010
0001
0100
,
0001
0001
0001
0100
,
0010
1000
0010
0100
,
1010
0000
0000
0100
,
1000
1000
1000
0100
,
0001
1000
0001
0100
,
0010
0001
0010
0100
,
0101
0001
0000
0101
,
0010
1000
0010
0100
,
1000
0100
1000
0010
,
0001
0010
0001
0100
,
0110
0000
0000
0100
,
0001
0001
0010
0100
,
1000
1000
0010
0100
,
0001
0100
1000
0001
,
0010
0110
0000
0110
,
1001
0000
0110
0000
0000
0100
0000
0100
,
0000
0000
0000
0000
0000
0100
0000
0010
,
0000
0000
0000
0000
0000
0010
0000
0010
,
0000
0000
0000
0110
,
1001
0000
0110
0000
0000
1000
0000
1000
,
0000
0000
0000
0010
0000
0000
0000
0100
,
0100
0000
0010
0000
,
0100
0000
0010
0000
0100
0010
0000
0000
,
0110
1001
0000
0000
;

//---------------dance-single - ----------------
#NOTES:
     dance-single:
     :
     Medium:
     6:
     0.364,0.375,0.162,0.000,0.000:
1000
0010
0000
0010
0000
0010
0000
0001
,
0100
1000
0000
1000
0000
1000
0000
0010
,
0100
0001
0000
0001
0000
0001
0000
0010
,
0100
0010
0000
0010
0000
0010
0000
1000
,
0001
0100
0000
0100
0000
0100
0000
1000
,
0001
0010
0000
0010
0000
0010
0000
1000
,
0001
1000
0100
0000
0001
0000
1000
0100
,
0010
0000
0001
0010
0100
0000
0001
1000
,
0010
0000
0100
0001
0100
0000
0010
1000
,
0100
0000
0001
1000
0001
0000
0010
0001
,
0010
0000
0100
0001
0100
0000
1000
0100
,
1000
0000
0001
0010
0001
0000
1000
0010
,
1000
1010
0100
0101
,
1000
0001
1000
0001
1000
0010
0000
0010
,
0110
1000
0001
0100
0100
0001
0010
0001
,
0010
0100
0010
1000
0010
0000
0000
0100
,
0001
1000
0001
0100
0010
1000
0100
1000
,
0001
0010
0100
0001
1001
0100
0010
0000
,
0010
1000
0010
0100
0001
1000
0100
1000
,
0001
0010
0100
0001
1000
0000
0000
0010
,
1000
0100
1000
0010
0001
0100
0001
0010
,
0100
0001
0010
0100
1001
0000
0000
0100
,
1010
0000
1000
0010
0000
0100
0000
0001
,
0000
1000
0000
0010
1000
0000
0001
0100
,
0000
0010
0000
0010
0000
0100
0000
1001
,
0100
0000
0001
0000
0010
0000
0001
0010
,
0100
0000
0001
1000
0000
0010
0000
0100
,
0000
0001
0000
1000
0010
0000
0100
0001
,
0000
1000
0000
0100
0000
0010
0000
1001
,
0010
1000
0010
0100
0001
1000
0000
0010
,
1010
0000
0100
1000
0000
0010
0000
0100
,
0000
0001
0000
1000
0001
0000
0010
0001
,
0000
0100
0000
0001
0000
1000
0000
1010
,
0100
0000
0001
0000
0100
0000
0001
1000
,
0010
0000
0100
0001
0000
0010
0000
0100
,
0000
0001
0000
0010
0001
0000
0100
0001
,
0000
1000
0000
0010
0000
0100
0000
0001
,
1000
0001
1000
0010
1000
0001
1000
0100
,
0010
0000
0110
1000
0000
0001
0000
0100
,
0000
0000
0000
0001
0000
1000
0000
0001
,
0000
0000
0000
0010
0000
0100
0000
0010
,
0000
0000
0000
1000
0000
1001
0000
0100
,
0010
0000
0110
0010
0000
0100
0000
0010
,
0000
0000
0000
0001
0000
0100
0000
0001
,
0001
0101
1000
1100
,
0010
0100
0010
0100
0010
0110
0000
0100
,
0010
0110
0000
0000
;

//---------------dance-single - ----------------
#NOTES:
     dance-single:
     :
     Hard:
     8:
     0.496,0.551,0.219,0.000,0.119: // measure 1
1000
0001
0100
0001
0010
0010
0000
0010
,  // measure 2
1000
0100
1000
0100
0100
0000
0010
0000
,  // measure 3
0001
1000
0010
0100
0010
0010
0000
0010
,  // measure 4
1000
0100
0001
0100
0100
0000
0001
0000
,  // measure 5
0010
1000
0010
0100
0010
0010
0000
0100
,  // measure 6
1000
0010
0001
0100
0001
0000
0100
0000
,  // measure 7
0010
0100
0010
1000
0000
0010
0100
0110
,  // measure 8
0000
1000
0001
0010
0000
0100
0001
0101
,  // measure 9
0000
0010
0001
0010
0000
1000
0010
1100
,  // measure 10
0000
0010
0100
0010
0000
1000
0001
1001
,  // measure 11
0010
1000
0010
1000
0001
0100
0001
0100
,  // measure 12
1000
0001
1000
0001
0010
0100
0010
0100
,  // measure 13
0010
1000
0010
0001
0100
1000
0100
0001
,  // measure 14
0010
0001
0010
1000
0100
0010
0100
0010
,  // measure 15
0100
0000
0001
0000
1000
0010
1000
0010
1000
0000
0100
0000
0001
0100
0001
0100
,  // measure 16
0001
0000
0100
0000
1000
0001
1000
0001
1000
0000
0100
0000
0010
0000
0000
0000
,  // measure 17
1000
0000
0001
0000
0100
0010
0100
0001
0100
0000
0010
0000
1000
0010
1000
0001
,  // measure 18
1000
0000
0100
0000
0001
1000
0010
1000
0010
0000
0100
0010
1001
0000
0100
0000
,  // measure 19
0010
0000
1000
0000
0001
0100
0001
0100
0010
0000
0001
0000
1000
0100
1000
0100
,  // measure 20
0010
0000
0100
0000
0001
1000
0001
1000
0001
0000
0010
0000
0100
0000
0000
0000
,  // measure 21
0010
0000
0001
0000
0100
1000
0100
1000
0100
0000
0010
0000
0001
0010
0001
0100
,  // measure 22
0001
0000
0100
0000
0010
0100
0001
1000
0001
0000
0100
0000
0110
0000
1000
0000
,  // measure 23
0010
1000
0010
0110
0000
0001
0000
1000
,  // measure 24
0001
0100
0001
0100
0001
0000
0010
1000
,  // measure 25
0001
0100
0010
0100
0000
0110
0000
1001
,  // measure 26
0100
0001
0100
0010
1000
0000
0010
1000
,  // measure 27
0001
0100
0001
0110
0000
1000
0000
0010
,  // measure 28
0100
0010
1000
0001
0100
0000
0100
0001
,  // measure 29
0010
0001
1000
0001
0000
0100
0000
0010
,  // measure 30
1000
0010
1000
0001
0100
0001
1000
0001
,  // measure 31
0010
0100
0010
0110
0000
0010
0000
0001
,  // measure 32
1000
0100
0001
0000
0001
0100
1000
0010
,  // measure 33
0100
0001
1000
0010
0000
0110
0000
1001
,  // measure 34
0100
0000
0001
0100
0001
0000
0010
1000
,  // measure 35
0010
0100
0001
1001
0000
0100
0000
0001
,  // measure 36
0010
0001
0010
1000
0001
0000
0100
0010
,  // measure 37
1000
0010
0000
0100
0000
1001
0000
1010
,  // measure 38
0100
1000
0010
0100
0010
1000
0001
1000
,  // measure 39
1001
0000
0110
0010
1000
0001
0000
0001
,  // measure 40
0000
0010
0100
0001
1000
0001
0000
0001
,  // measure 41
0000
0100
0001
0010
0001
0010
0000
0010
,  // measure 42
0000
0100
0001
1000
0010
1010
0000
0100
,  // measure 43
0001
0000
0101
0100
0010
1000
0000
0001
,  // measure 44
0000
0001
0100
0010
1000
0001
0100
0010
,  // measure 45
1000
0010
1000
0001
0100
0001
0100
1000
,  // measure 46
0010
1000
0010
1000
0010
0110
0000
0110
,  // measure 47
1000
1001
0000
0000
;
