#TITLE:YOU;
#SUBTITLE:;
#ARTIST:SPECIAL D;
#TITLETRANSLIT:;
#SUBTITLETRANSLIT:;
#ARTISTTRANSLIT:;
#CREDIT:;
#BANNER:YOU.png.png;
#BACKGROUND:YOU.bg;
#LYRICSPATH:;
#CDTITLE:;
#MUSIC:YOU.mp3;
#OFFSET:-6.860;
#SAMPLESTART:20.220;
#SAMPLELENGTH:12.000;
#SELECTABLE:YES;
#BPMS:0.000=144.080;
#STOPS:;
#BGCHANGES:;

//---------------dance-single - ----------------
#NOTES:
     dance-single:
     :
     Easy:
     3:
     0.208,0.218,0.152,0.000,0.000:
1000
0000
0010
0000
,
0100
0000
0001
0000
,
0010
0000
0010
0000
,
0100
0000
0100
0000
,
1001
0000
0001
0001
,
0001
0000
0001
0001
,
0001
0000
0010
0100
,
1001
0000
0000
0100
,
1001
0000
0010
1000
,
0100
0000
0001
0000
,
0010
0000
0010
0010
,
0100
0000
0001
0000
,
0010
1010
0000
0100
,
0001
0000
0001
1000
,
0010
0100
0000
0100
,
0100
0000
0100
0010
,
1010
0000
1000
1000
,
0001
0000
0100
0000
,
0010
0000
0001
0001
,
0010
0000
0001
0000
,
0010
0110
0000
0100
,
0001
0000
0100
0000
,
0001
0011
0000
0010
,
0010
0000
0001
0000
,
0010
0010
0010
0000
,
0100
0100
0100
0000
,
1001
0000
0000
0000
,
0100
0000
0000
0000
,
0110
0000
0000
0000
,
0100
0100
0100
0000
,
0010
0000
0000
0000
,
0100
0000
0000
0000
,
0001
0000
1000
0000
,
1001
0000
0000
0110
,
1001
0000
0100
0000
,
0001
0000
1000
0000
,
0010
1000
0100
0000
,
0010
0010
0010
0000
,
0100
0000
0001
0000
,
1000
0000
0010
0000
,
0001
0001
0010
0000
,
0100
0001
0100
0000
,
0110
0000
1000
0000
,
0001
0000
0100
0000
,
0010
0010
1000
0000
,
0100
0010
0100
0000
,
0010
0000
1000
0000
,
0001
0000
0100
0000
,
0001
1000
0001
0000
,
0010
0010
0100
0000
,
1001
0000
0000
0000
;

//---------------dance-single - ----------------
#NOTES:
     dance-single:
     :
     Medium:
     4:
     0.308,0.299,0.174,0.000,0.000:
0010
0100
0001
0100
,
0010
0000
1000
0001
,
0010
1000
0010
0100
,
0010
0000
1000
0101
,
1001
0000
0100
0100
,
0100
0000
0001
1000
,
0010
0001
0100
0010
,
1001
0000
0000
0100
,
0010
0010
0010
0000
1000
0000
0100
0000
,
1000
0000
1000
0100
,
0001
0001
0001
0000
0100
0000
0001
0000
,
0010
0000
1000
0010
,
0010
0010
0010
0000
1000
0000
0001
0000
,
0010
0000
0010
0100
,
1000
1000
1000
0000
0010
0000
1000
0000
,
0100
0000
0010
0101
,
0110
1000
0001
0100
,
0001
0000
0001
1000
,
0010
0010
1000
0010
,
1000
0000
1000
0100
,
0001
1000
0001
0000
0010
0000
0100
0000
,
0001
0000
0001
0100
,
1000
1000
0010
0000
0100
0000
0001
0000
,
0001
0000
0010
0001
,
0110
0100
0100
0000
,
0010
0010
0010
0000
0100
0000
0000
0000
,
1001
0100
0001
1000
,
0010
0000
0001
0000
,
1000
1000
0010
1000
,
0100
0000
0000
0000
0100
0010
0100
0000
,
1001
0010
0010
0000
,
1000
0010
0010
0000
,
1000
0100
0001
0100
,
1001
0000
0000
0110
,
1001
0100
0100
0001
,
1000
1000
0001
0100
,
1000
0010
1000
0100
,
0001
0010
0001
0100
,
0001
0000
0001
0100
,
0001
0001
1000
1000
,
0010
0000
0010
0100
,
0010
1000
0100
1100
,
1001
0000
0000
0000
0010
1000
0010
0000
,
0100
0001
1000
0010
,
0010
0000
0000
0000
0100
0001
0100
0000
,
0010
0010
1000
0001
,
1001
1001
0100
0001
,
0010
0000
0010
0001
,
1000
1000
0010
1000
,
0001
0000
1000
0001
,
1001
0000
0000
0000
;

//---------------dance-single - ----------------
#NOTES:
     dance-single:
     :
     Hard:
     7:
     0.502,0.517,0.305,0.000,0.016: // measure 1
1000
0000
0000
0000
0010
0000
0000
0000
1000
0000
0000
1000
0000
0000
1000
0000
,  // measure 2
0010
0000
0100
0000
0001
1000
0000
0010
,  // measure 3
0001
0000
0000
0000
0100
0000
0000
0000
0010
0000
0000
0010
0000
0000
0010
0000
,  // measure 4
1000
0000
1001
0000
0100
0010
0000
0100
,  // measure 5
0001
0010
0001
0010
0001
0000
0100
0000
,  // measure 6
0010
1000
0010
1000
0010
0000
0100
0000
,  // measure 7
0010
1000
0010
0000
0100
1000
0001
0100
,  // measure 8
1001
0000
0000
0000
0010
0010
0010
0000
,  // measure 9
1001
0100
0010
0010
1000
0000
1000
0100
,  // measure 10
0010
0001
1000
0101
,  // measure 11
0010
0010
0001
0100
1000
0000
1000
0010
,  // measure 12
0100
0100
1000
1010
,  // measure 13
0100
0100
0100
1000
0010
0000
0100
0001
,  // measure 14
1000
1000
0010
0101
,  // measure 15
0010
0010
0010
1000
0001
0000
0001
0100
,  // measure 16
0010
0000
1000
0000
0010
1000
0001
0100
,  // measure 17
0010
0001
0000
0001
1000
0010
0000
0010
,  // measure 18
0100
0001
0000
1000
0001
1000
0010
0000
,  // measure 19
0100
0010
0000
1000
0001
0010
0000
0001
,  // measure 20
1000
1000
0000
0010
1000
0100
1000
0000
,  // measure 21
0010
0100
0000
0100
0001
0010
0000
0010
,  // measure 22
0001
0100
0000
0100
0010
1000
0001
0000
,  // measure 23
0100
0010
0000
1000
0001
0100
0000
0010
,  // measure 24
1000
0001
0000
0001
0100
0010
1000
0000
,  // measure 25
1001
0001
0001
0000
0100
0010
0000
0000
,  // measure 26
0101
0100
0100
0000
0010
0010
0010
0000
,  // measure 27
1001
0010
0001
1000
0010
0100
0001
0000
,  // measure 28
0101
0000
0000
0000
0010
0000
0001
0000
0100
0000
0000
0100
0000
0000
0100
0000
,  // measure 29
0110
1000
0001
0000
0010
0001
1000
0100
,  // measure 30
0010
1000
0100
1000
0001
0101
0101
0000
,  // measure 31
1010
0100
0001
1000
0001
0000
0010
0000
,  // measure 32
1100
0001
1000
0001
1000
0000
0010
0000
,  // measure 33
1010
0100
0001
0000
0011
1000
0001
0000
,  // measure 34
1001
0000
0000
0000
1000
1000
1000
0000
,  // measure 35
0010
0001
0100
0000
0010
1000
0100
0010
,  // measure 36
0001
1000
1000
0000
1000
0001
1000
0000
,  // measure 37
0010
0100
0001
0000
0010
0100
0010
1000
,  // measure 38
0010
0001
0100
1001
,  // measure 39
0010
0010
0100
0000
0001
1000
0001
0010
,  // measure 40
0001
0100
0001
0110
,  // measure 41
0100
0100
0001
0000
0010
1000
0100
0010
,  // measure 42
1000
1000
1000
0000
0001
0000
0101
0000
,  // measure 43
0010
1000
0000
0001
1000
0100
1000
0010
,  // measure 44
1000
0000
0101
0000
0010
0100
0100
0000
,  // measure 45
1000
0010
0000
0100
0001
0010
0001
1000
,  // measure 46
0010
0000
0110
0000
1000
1000
0001
0100
,  // measure 47
0010
0100
0010
0000
1001
0000
1001
0000
,  // measure 48
0010
0100
0010
1000
0001
0100
0001
0010
,  // measure 49
1000
0000
0101
0000
0010
0010
1000
0001
,  // measure 50
0100
0001
1000
0001
0100
0000
0101
0000
,  // measure 51
1001
0000
0000
0000
;
