#TITLE:WORLD FOR YOU;
#SUBTITLE:;
#ARTIST:ASHLEY WALLBRIDGE FEAT. SARAH DE WARREN;
#TITLETRANSLIT:;
#SUBTITLETRANSLIT:;
#ARTISTTRANSLIT:;
#CREDIT:;
#BANNER:WORLD FOR YOU.png.png;
#BACKGROUND:WORLD FOR YOU.bg;
#LYRICSPATH:;
#CDTITLE:;
#MUSIC:WORLD FOR YOU.mp3;
#OFFSET:-7.240;
#SAMPLESTART:55.860;
#SAMPLELENGTH:12.000;
#SELECTABLE:YES;
#BPMS:0.000=137.970;
#STOPS:;
#BGCHANGES:;

//---------------dance-single - ----------------
#NOTES:
     dance-single:
     :
     Easy:
     3:
     0.186,0.194,0.132,0.132,0.000:
0020
0000
0030
0000
,
0200
0000
0300
0000
,
0010
0000
0001
0000
,
0100
0000
0000
0000
,
2002
0000
3003
0000
,
0020
0000
0030
0000
,
0002
0000
0003
0000
,
0020
0000
0030
0000
,
0220
0000
0330
0000
,
0020
0000
0030
0000
,
0200
0000
0300
0000
,
0020
0000
0030
1001
,
1001
0000
0100
0000
,
0010
0010
0010
0000
,
0100
0000
0001
0000
,
0100
0100
0100
0000
,
1001
0000
0010
0000
,
0100
0001
0001
0000
,
0010
0000
0100
0000
,
0001
1000
0100
0000
,
1001
0000
0100
0000
,
0010
0010
0001
0000
,
0001
0000
0100
0000
,
0001
0100
1000
0000
,
1001
0000
0010
0000
,
0010
0010
1000
0000
,
0100
0100
0100
0000
,
1001
0000
0000
0010
,
1010
0000
0010
0010
,
0010
0000
0100
0000
,
0001
0000
0001
1000
,
0010
0000
0100
0000
,
0101
0000
0001
0001
,
0001
0000
0100
0000
,
0001
0000
0010
0010
,
0001
0000
1000
0000
,
1000
0010
0010
0000
,
0100
0000
0001
0000
,
1000
0000
0010
0000
,
0100
0001
0100
0000
,
0101
0000
0010
0000
,
0110
0000
0100
0000
,
1000
0000
0001
0000
,
1000
0000
0001
1000
,
0010
0000
0000
0000
;

//---------------dance-single - ----------------
#NOTES:
     dance-single:
     :
     Medium:
     6:
     0.346,0.363,0.242,0.121,0.000:
0120
0000
0130
1000
,
0002
0000
0000
0000
0013
0000
0100
2000
,
0000
0000
0000
0010
0000
3100
0000
0101
,
0000
0000
0010
0000
,
0210
0000
0001
0001
0300
0000
1000
0000
,
0102
0000
0010
0010
0003
0000
0000
0000
,
1020
0000
0100
0100
0030
0000
0010
0000
,
0120
0000
1000
1000
0000
0130
0000
0000
,
2000
0010
3010
0001
,
0002
0000
0010
0000
0103
0000
0010
0020
,
0000
0000
0100
0000
0130
0100
0000
1000
,
0002
0000
0003
0101
,
0101
0001
0000
0000
0001
0000
0000
0001
,
0010
0000
0010
0000
0010
0000
0000
0001
,
1000
0000
0010
0000
0010
0000
0000
0100
,
0001
0000
1000
0000
0010
1000
0000
0100
,
1001
0000
0000
0010
0010
0000
0010
1000
,
0000
0001
0000
0100
0000
0001
0000
0011
,
0000
0001
0001
0000
0001
0000
0001
1000
,
0000
0010
0000
1000
0000
0100
0000
0001
,
0011
0000
0000
0100
0100
0000
1000
0001
,
0000
0001
0000
0010
0000
0001
0000
0100
,
0000
0010
0010
0000
0010
0000
1000
0001
,
0000
0010
0000
0100
0000
0100
0000
0001
,
1001
0000
0000
0001
0001
0000
0010
0001
,
0000
0100
0000
0010
0000
1000
0000
1000
,
0000
0010
0100
0000
0010
0000
0100
1001
,
0000
0100
0100
0011
,
0101
0010
0000
1000
0000
0001
0000
0100
,
0001
1000
0000
0010
0000
0100
0000
0001
,
1000
0000
0010
0000
1001
0000
0000
0100
,
0001
1000
0010
0000
,
0001
0010
0000
0100
0000
0001
0000
1000
,
0010
1000
0000
0001
0000
0100
0000
0010
,
1000
0000
0001
0000
0101
0000
0000
1000
,
0010
0100
0001
0000
,
0011
0000
0001
0100
0000
0010
0000
1000
,
0001
1000
0000
0100
0000
0100
0000
0001
,
0010
0001
0000
0100
0000
0001
0000
1010
,
0000
0100
0000
0101
0000
0010
0000
0011
,
0001
0000
0100
0000
0001
0000
0000
0010
,
1000
0000
0010
0000
0100
0000
0001
0100
,
1000
0001
1000
0000
0001
1000
0001
0000
,
0010
0001
0100
0001
1000
0001
0000
0010
,
1001
0000
0000
0000
;

//---------------dance-single - ----------------
#NOTES:
     dance-single:
     :
     Hard:
     7:
     0.458,0.412,0.209,0.154,0.000: // measure 1
2001
0000
0000
3100
0010
0000
0100
0010
,  // measure 2
0002
0000
0000
0013
0100
0000
0100
0001
,  // measure 3
0002
0000
0103
0200
0000
0310
0000
1000
,  // measure 4
1002
0000
0000
0000
0103
0000
1000
0010
,  // measure 5
0200
0000
0010
0010
0000
0010
0310
0000
,  // measure 6
1020
0000
0100
0100
0000
0100
0130
0000
,  // measure 7
0002
0000
0010
0010
0000
0010
0013
0000
,  // measure 8
0210
0000
0010
0010
0000
0010
0310
0000
,  // measure 9
2000
0000
3100
0001
0002
0000
0013
0100
,  // measure 10
2000
0000
0100
0000
3100
0000
0001
0010
,  // measure 11
0020
0000
0001
0000
0031
1000
0000
1000
,  // measure 12
0002
0000
0103
1010
,  // measure 13
0101
0100
0000
0010
0100
0000
1000
0010
,  // measure 14
0100
0001
0000
0001
1000
0000
1000
0010
,  // measure 15
0100
0001
0000
0001
0010
0000
0010
0100
,  // measure 16
1000
0001
0000
0001
0010
0100
0000
1000
,  // measure 17
1010
0000
0101
0001
1000
0000
0010
1000
,  // measure 18
0001
0100
0000
0100
0001
0010
0000
0010
,  // measure 19
1000
0001
1000
0000
0100
1000
0010
0100
,  // measure 20
0001
1000
0000
0010
0000
0101
0000
1010
,  // measure 21
0100
0001
1000
0010
0100
0000
0110
0000
,  // measure 22
0010
0001
0010
0100
0000
0001
0100
1000
,  // measure 23
0000
1000
0010
0000
0100
0000
0001
1000
,  // measure 24
0010
0100
0000
0001
0000
1010
0000
0101
,  // measure 25
0010
1000
0010
0100
0001
0000
1000
0010
,  // measure 26
0001
0010
0000
0001
0010
0001
0100
1000
,  // measure 27
0010
0100
0001
0000
1000
0000
0010
0100
,  // measure 28
1001
0100
0000
0100
0001
0000
0110
0000
,  // measure 29
1000
0010
1000
0100
0001
0000
0010
0000
,  // measure 30
0001
0010
1000
1000
0010
0000
0100
0001
,  // measure 31
1000
0010
0000
0010
0100
0001
0000
1000
,  // measure 32
0010
0100
0001
1000
0010
0000
0101
0000
,  // measure 33
0011
0001
0100
1000
0010
0000
0100
0000
,  // measure 34
0010
1000
0100
0010
0010
0000
0100
0001
,  // measure 35
0010
0100
0000
0100
0001
0010
0000
0010
,  // measure 36
0001
1000
0001
0000
1000
0001
1000
0000
,  // measure 37
1000
0010
0000
0010
1000
0100
1000
0000
,  // measure 38
0010
0001
0000
0001
0100
0001
0010
0000
,  // measure 39
0100
0001
0000
0001
1000
0010
0100
0001
,  // measure 40
1000
0100
0000
0100
0001
0100
0100
0000
,  // measure 41
0010
0001
0000
0001
0100
0010
0100
1000
,  // measure 42
0010
0001
0000
0001
1000
0001
0100
0010
,  // measure 43
1000
0010
0010
0000
0100
0001
0001
0000
,  // measure 44
1010
0100
0001
1000
0010
0100
0001
0010
,  // measure 45
1001
0000
0000
0000
;
