#TITLE:WE'RE OUT OF TIME;
#SUBTITLE:;
#ARTIST:VACANCY;
#TITLETRANSLIT:;
#SUBTITLETRANSLIT:;
#ARTISTTRANSLIT:;
#CREDIT:;
#BANNER:WE'RE OUT OF TIME.png.png;
#BACKGROUND:WE'RE OUT OF TIME.bg;
#LYRICSPATH:;
#CDTITLE:;
#MUSIC:WE'RE OUT OF TIME.mp3;
#OFFSET:-8.080;
#SAMPLESTART:56.294;
#SAMPLELENGTH:12.000;
#SELECTABLE:YES;
#BPMS:0.000=126.050;
#STOPS:;
#BGCHANGES:;

//---------------dance-single - ----------------
#NOTES:
     dance-single:
     :
     Easy:
     4:
     0.241,0.269,0.099,0.099,0.000:
1000
0010
0000
0100
,
0001
0001
0000
0010
,
0001
0100
0000
0010
,
1000
0100
0001
0101
,
0010
0010
0000
0100
,
0001
1000
0000
1000
,
0010
0100
0000
0100
,
0001
0001
0001
0100
,
1000
0010
1000
0010
,
1000
0000
0001
1000
,
0010
0000
0100
0000
,
0001
0001
0010
0000
,
0001
0100
0010
0100
,
0010
0000
0010
0010
,
0100
0000
0001
0000
,
1000
1000
0001
0001
,
0020
0000
0130
0001
,
0010
0000
1000
0001
,
0020
0000
0031
1000
,
0010
0000
0010
0100
,
2000
0000
3100
0010
,
1000
0000
1000
0001
,
0020
0000
0031
0100
,
1000
0010
0100
0001
,
0101
0000
0101
0110
,
1001
0100
0001
0001
,
0001
0010
1000
0100
,
0001
0010
1000
1000
,
1000
0100
0001
0010
,
2000
0010
3001
0000
,
0100
0000
0010
0010
,
0002
0000
0103
0010
,
1000
0000
0001
0101
,
0020
0000
1030
1000
,
0001
0000
0001
0100
,
0010
1000
0100
0001
,
0010
0010
0100
0110
,
0200
0000
0301
0010
,
0020
0000
1030
0100
,
0001
0010
0100
0010
,
0100
0100
0110
1001
;

//---------------dance-single - ----------------
#NOTES:
     dance-single:
     :
     Medium:
     5:
     0.341,0.293,0.198,0.297,0.000: // measure 1
0020
1000
0130
1000
,  // measure 2
2000
0010
3001
0101
,  // measure 3
0010
0010
0020
1030
,  // measure 4
0002
0000
0103
0000
0010
1000
0001
0000
,  // measure 5
0200
0010
0301
1000
,  // measure 6
0002
0010
0103
1010
,  // measure 7
0100
0100
0200
0301
,  // measure 8
0020
0000
1030
0000
0001
1000
0001
0000
,  // measure 9
0200
0010
0310
0001
,  // measure 10
0002
0010
1003
1100
,  // measure 11
0001
0001
0002
0103
,  // measure 12
0020
0000
0130
0000
0001
1000
0001
0000
,  // measure 13
2000
0100
3001
0001
,  // measure 14
0002
0010
1003
0110
,  // measure 15
0010
0010
0020
0130
,  // measure 16
0200
0000
0301
0000
0010
0100
0010
0000
,  // measure 17
0100
0100
0100
0100
0000
0000
0110
0000
,  // measure 18
0020
0000
1030
0000
,  // measure 19
0010
0010
0010
0010
0000
0000
0100
0000
,  // measure 20
0001
0101
0010
1010
,  // measure 21
1000
1000
1000
1000
0000
0000
1000
0000
,  // measure 22
0010
1000
0100
0101
,  // measure 23
0001
0001
0001
0001
0000
0000
0100
0000
,  // measure 24
0001
0110
0001
0101
,  // measure 25
0100
0010
0100
0010
0100
0000
0101
0000
,  // measure 26
2000
0010
3001
0100
,  // measure 27
0020
1030
0100
0101
,  // measure 28
0010
1000
0001
0100
,  // measure 29
1000
0001
0010
0000
0001
1000
0100
0000
,  // measure 30
0020
0001
0130
1010
,  // measure 31
0200
1300
0001
0110
,  // measure 32
0100
0001
0100
0010
,  // measure 33
1000
0001
1000
0000
0001
1000
0001
0000
,  // measure 34
0120
0000
0130
0000
,  // measure 35
0010
0000
0000
0000
1000
0001
0000
1000
,  // measure 36
0001
0200
0301
0020
,  // measure 37
1030
0101
0110
1001
,  // measure 38
0200
0000
0310
0000
,  // measure 39
1000
0000
0000
0000
0001
1000
0001
1000
,  // measure 40
0020
0000
1030
0100
,  // measure 41
0002
0000
0000
0000
0103
0000
0010
1000
;

//---------------dance-single - ----------------
#NOTES:
     dance-single:
     :
     Hard:
     7:
     0.437,0.383,0.209,0.231,0.044:
0010
0010
0020
0000
1030
0000
0100
0001
,
0000
0010
0000
0010
0000
1000
0000
0001
,
0100
0100
0200
0000
0310
0000
0001
0000
,
1000
0010
0000
0100
0001
1000
0010
0100
,
0010
0010
0020
0000
0031
0000
0100
0000
,
1000
0010
0000
1000
0000
0100
0000
1000
,
1000
1000
2000
0000
3010
0000
0100
0000
,
0001
0010
0000
0100
0010
0001
1000
0100
,
0010
0100
2000
0000
3010
0000
0110
0000
,
0001
0100
0000
1000
0000
0010
0000
0100
,
0010
0010
0020
0000
0031
0000
0101
0000
,
0010
1000
0000
0001
0100
0010
1000
0001
,
0100
0100
0200
0000
0310
0000
1010
0000
,
0100
0001
0000
1000
0000
0100
0000
0010
,
0100
0001
0020
0000
0130
0000
0101
0000
,
0010
0100
0000
1000
0001
0010
0100
0001
,
1000
0010
1000
0000
0010
0000
1000
0000
0000
0000
0000
0000
0110
0000
0000
0000
,
0020
1000
0100
0130
,
0010
0100
0010
0000
0100
0000
0010
0000
0000
0000
0000
0000
1000
0000
0010
0000
,
2000
3100
0002
0103
,
0010
0100
0010
0000
0100
0000
0010
0000
0000
0000
0000
0000
0101
0000
0000
0000
,
0020
0001
0100
0130
,
1000
0001
1000
0000
0001
0000
1000
0000
0000
0000
0000
0000
0110
0000
0000
0000
,
0200
0301
0020
0130
,
1000
0010
0001
1000
0100
0010
1001
0000
,
0010
1000
0020
0000
0100
0000
0130
0000
,
2000
0000
0000
0000
3100
0000
0010
0000
0100
0000
0000
0001
0000
0000
0101
0000
,
0010
0000
1000
0010
1000
0100
1000
0001
,
0020
0000
0130
0000
0001
0100
1000
0010
,
0200
0000
1000
0000
1300
0000
0010
0100
,
0002
0000
0000
0000
0103
0000
0010
0000
1000
0000
0000
0001
0000
0000
0101
0000
,
0010
0000
1000
0010
1000
0001
0100
0001
,
0001
0010
0001
0100
0001
0010
1001
0000
,
0101
0000
0000
0000
0011
0000
0000
0000
0110
0000
0000
0010
0000
0000
1000
0000
,
0001
0000
0000
0000
0101
0000
0000
0000
0011
0000
0000
0100
0000
0000
0110
0000
,
2000
0000
3010
0001
0002
0000
0103
0010
,
1000
0001
1000
0000
0100
0010
0010
0100
,
0001
1000
0001
0100
0001
0010
0001
0000
,
1000
0010
1000
0100
0001
1000
0001
0100
,
0001
1000
0001
0000
1000
0001
1000
0100
,
0001
0010
0001
0100
0001
1000
1001
0110
;
