#TITLE:Santa Maria;
#SUBTITLE:;
#ARTIST:Tatjana;
#TITLETRANSLIT:;
#SUBTITLETRANSLIT:;
#ARTISTTRANSLIT:;
#CREDIT:;
#BANNER:SANTA MARIA.png.png;
#BACKGROUND:SANTA MARIA.bg.png;
#LYRICSPATH:;
#CDTITLE:;
#MUSIC:SANTA MARIA.mp3;
#OFFSET:-8.360;
#SAMPLESTART:44.020;
#SAMPLELENGTH:12.000;
#SELECTABLE:YES;
#BPMS:0.000=131.040;
#STOPS:;
#BGCHANGES:;

//---------------dance-single - ----------------
#NOTES:
     dance-single:
     :
     Easy:
     3:
     0.182,0.205,0.124,0.000,0.000:
0010
0100
0000
0100
,
0000
0001
0000
0001
,
0000
0100
0010
0100
,
0100
0100
0010
0000
,
0010
0000
0110
0000
,
0100
0001
0100
0000
,
1000
0000
0101
0000
,
0010
1000
0010
0000
,
0100
0000
0110
0000
,
0100
0010
0100
0000
,
1000
0000
0101
0000
,
1000
0001
1000
0000
,
0010
0000
0010
0000
,
0100
0000
0100
0000
,
0001
0000
0001
0000
,
1000
0000
1000
0000
,
1000
0000
0100
0000
,
0001
0000
0010
0000
,
0100
0000
0001
0000
,
1000
0001
1001
0000
,
0010
0000
0100
0000
,
1000
1000
1000
0100
,
0001
0000
0010
0000
,
0100
0000
0100
0001
,
0110
0000
0100
0000
,
0010
0000
1000
0010
,
0100
0000
0001
0000
,
1000
0000
0010
1000
,
1001
0000
0100
0000
,
1000
0000
0100
0000
,
0010
1000
0010
0000
,
0100
0001
0100
0001
,
1001
0000
0010
0000
,
0100
0000
0001
0000
,
1000
0010
0100
0000
,
1001
0000
0100
0000
,
1001
0000
0100
0000
,
0001
0100
0001
0000
,
0010
0000
0100
0000
,
0010
1000
0100
0010
,
1000
0000
0100
0000
,
1000
0000
0010
0100
,
0010
0000
0001
0000
,
1001
0000
0001
1000
,
1001
0000
0000
0000
;

//---------------dance-single - ----------------
#NOTES:
     dance-single:
     :
     Medium:
     5:
     0.306,0.296,0.248,0.000,0.000:
0010
1001
0000
0101
,
0000
0011
0000
1010
,
0000
0101
0101
0010
,
1000
0000
0010
0000
0100
0001
0100
0000
,
0110
0010
1000
0010
,
0100
0000
0000
0000
0001
0010
0100
0000
,
0001
0001
1000
0010
,
0100
0000
0001
0000
1000
0010
1000
0000
,
1010
0100
0001
1000
,
0010
0000
0000
0000
0100
0001
0100
0000
,
0010
1000
0001
0100
,
0010
0000
1000
0000
0010
0100
0010
0000
,
0110
0010
1000
0000
,
0010
1000
0010
0000
,
0100
0001
0100
0000
,
0010
0100
0010
0000
,
1000
0100
0100
0100
,
0001
0100
0100
0100
,
1000
0010
0010
0010
,
0100
0010
0100
0010
1001
0000
0000
0000
,
0101
0001
0100
0001
,
0010
1000
0100
1000
,
0010
1000
0010
0000
0100
0001
0100
0000
,
1001
0100
0001
1000
,
1010
0000
0100
0000
0001
0001
0001
0000
,
0100
0001
1000
0010
,
0100
0000
0010
0000
1000
0010
1000
0000
,
0001
0100
0001
0000
0010
0000
0100
0000
,
1001
0010
1000
0100
,
1000
0100
1000
0000
,
0010
0001
0010
0001
,
0100
0101
0100
0110
,
1001
0100
0001
0100
,
0010
1000
0010
0000
,
0100
0001
0100
0010
,
1000
0001
1000
0000
1001
0100
0001
0000
,
0011
0001
0100
0001
,
1000
0010
1000
0000
0001
0100
0001
0000
,
0010
0010
1000
0100
,
1000
0000
0000
0000
0001
0100
1000
0000
,
1001
0100
0101
0010
,
1000
0010
1000
0000
0001
0100
0001
0000
,
0010
1000
1010
0100
,
0110
0000
0001
0000
1001
0000
1000
0001
,
1000
0000
0000
0000
;

//---------------dance-single - ----------------
#NOTES:
     dance-single:
     :
     Hard:
     7:
     0.414,0.433,0.186,0.000,0.088: // measure 1
1000
0000
0000
1000
0000
0000
1000
0000
0000
0100
0000
0000
1000
0000
0000
0000
,  // measure 2
0100
0000
0000
0100
0000
0000
0100
0000
0000
0010
0000
0000
0100
0000
0000
0000
,  // measure 3
0001
0000
0000
0001
0000
0000
0001
0000
0100
0000
0000
0000
1010
0000
0000
0000
,  // measure 4
0101
0000
0110
1000
0001
0100
1001
0000
,  // measure 5
0010
1000
0010
0000
0001
0100
0001
0000
,  // measure 6
0010
0100
0001
1000
0010
0100
0010
0000
,  // measure 7
1000
0100
1000
0000
0001
0100
0001
0000
,  // measure 8
0001
0010
0100
1000
0010
0100
0001
0000
,  // measure 9
0010
0100
0010
0000
0100
0001
0100
0000
,  // measure 10
0100
0010
0100
1000
0100
0001
0100
0000
,  // measure 11
0001
1000
0010
0000
0001
0100
0001
0000
,  // measure 12
1000
0001
1000
0010
0001
1000
0101
0000
,  // measure 13
1000
0000
0010
0000
1000
0010
0000
1000
0010
0000
1000
0010
0000
0000
0100
0000
,  // measure 14
0001
0000
0100
0000
0001
0100
0000
0001
0100
0000
0001
0100
0000
0000
0001
0000
,  // measure 15
1000
0000
0001
0000
1000
0001
0000
1000
0001
0000
1000
0001
0000
0000
0100
0000
,  // measure 16
0010
0000
0001
0000
0010
0001
0000
0010
0001
0000
0010
0001
0000
0000
0100
0000
,  // measure 17
1000
0001
0010
0000
0100
0000
0001
0000
,  // measure 18
0010
0100
0010
0000
1000
0000
0001
0000
,  // measure 19
0100
0001
0100
0000
1000
0010
1000
0000
,  // measure 20
0010
0100
0001
1000
0110
0000
1001
0000
,  // measure 21
0110
0000
1000
0000
0010
0010
1000
0000
,  // measure 22
0100
1000
0010
0000
0100
0001
0100
0000
,  // measure 23
0010
1000
0010
0001
,  // measure 24
0101
0000
1000
0000
0110
0000
1000
0100
,  // measure 25
0010
0000
0001
0000
0100
0000
0001
0100
,  // measure 26
0010
0000
1000
0000
0010
0000
0100
0001
,  // measure 27
0100
0000
0001
0000
1000
0000
0001
1000
,  // measure 28
0010
1000
0010
0000
0100
0001
0100
0000
,  // measure 29
1001
0100
0001
0100
,  // measure 30
0010
1000
0010
0100
,  // measure 31
0001
0010
0001
0000
1000
0100
1000
0000
,  // measure 32
0001
0010
0001
0000
1000
0100
0001
0100
,  // measure 33
0010
1000
0100
0000
0010
0000
0001
0000
,  // measure 34
0100
0001
0010
0000
0001
0000
0100
0000
,  // measure 35
0010
0100
0010
0000
0001
1000
0100
0000
,  // measure 36
1001
0100
1100
0010
,  // measure 37
0001
0010
0100
0010
0100
0000
0001
0000
,  // measure 38
1000
0010
0100
0010
0100
0000
1010
0000
,  // measure 39
0100
1000
0010
0100
0001
0000
0010
0000
,  // measure 40
0001
1000
0001
0000
0101
0000
0010
1000
,  // measure 41
0100
1000
0001
0100
0010
0000
1000
0000
,  // measure 42
0001
0010
0001
0100
0010
0000
1000
0000
,  // measure 43
0001
0100
0001
0000
1000
0010
1000
0000
,  // measure 44
1001
0010
0100
0000
0101
0010
1000
0000
,  // measure 45
1001
0000
0000
0000
;
