#TITLE:SHINING STAR;
#SUBTITLE:;
#ARTIST:OLE VAN DANSK;
#TITLETRANSLIT:;
#SUBTITLETRANSLIT:;
#ARTISTTRANSLIT:;
#CREDIT:;
#BANNER:SHINING STAR.png.png;
#BACKGROUND:SHINING STAR.bg.png;
#LYRICSPATH:;
#CDTITLE:;
#MUSIC:SHINING STAR.mp3;
#OFFSET:-7.100;
#SAMPLESTART:41.340;
#SAMPLELENGTH:12.000;
#SELECTABLE:YES;
#BPMS:0.000=140.030;
#STOPS:;
#BGCHANGES:;

//---------------dance-single - ----------------
#NOTES:
     dance-single:
     :
     Easy:
     4:
     0.275,0.285,0.209,0.000,0.000:
1000
1000
0000
1000
,
1000
1000
0000
1000
,
0001
0001
0000
0001
,
0001
0001
0000
0001
,
1000
0010
0100
0000
,
0010
0100
0010
1000
,
0001
0000
0100
0010
,
0001
0000
0100
0000
,
0010
1000
0100
0000
,
0100
1000
0100
1000
,
0010
0001
0100
1000
,
0010
0000
0100
0010
,
1001
0000
0100
0000
,
0001
0100
0100
0000
,
1010
0000
0100
0000
,
0001
1000
0010
0100
,
0110
0000
0100
0000
,
1001
0000
0100
0000
,
1010
0000
0101
0000
,
1001
0100
0001
0000
,
1000
0010
1000
0100
,
1000
0001
1000
0000
,
0010
0001
0010
0100
,
1000
0010
0100
0001
,
1000
0010
0100
0000
,
0100
0001
0100
0001
,
0010
0000
1000
0000
,
0001
1000
0010
0110
,
1001
0100
0001
0100
,
0010
1000
0010
0000
,
0100
0001
1000
0010
,
1000
0001
0010
0100
,
0001
1000
0100
0000
,
1000
0010
1000
0100
,
0001
1000
0010
0100
,
0001
0000
0100
0001
,
0011
1000
0101
1000
,
0010
1000
0100
0000
,
0100
1000
0010
0100
,
0001
1000
0001
0100
,
1010
1000
1001
0100
,
0001
1000
0010
0000
,
0100
0001
0100
0001
,
1000
0010
0100
0010
,
1001
0100
0001
0000
,
0001
0100
0001
1000
,
1001
0010
0100
1000
,
0001
0000
0100
0000
,
1010
1000
0100
0000
,
0101
0001
0010
1000
,
0011
1000
1100
0001
,
1001
0000
0010
0000
,
1001
0000
0000
0000
;

//---------------dance-single - ----------------
#NOTES:
     dance-single:
     :
     Medium:
     4:
     0.310,0.311,0.179,0.000,0.000:
1000
0010
1000
0000
,
0010
1000
0010
1000
0010
0000
0100
0000
,
0001
0010
1000
0100
,
0001
1000
0010
0000
,
0101
0001
0011
0000
,
0001
0100
1000
0000
0010
0000
0100
0000
,
0001
0001
0100
1000
,
0010
0100
0001
1000
,
0010
1000
0100
0000
,
0010
0100
0010
0100
0010
0000
0001
0000
,
1000
0010
0100
0001
,
1000
0010
0100
0000
,
1001
0100
0100
0000
,
0010
0001
0100
0000
0001
0000
1000
0000
,
1010
0000
0100
0000
,
1000
0100
1000
0001
,
0001
0100
0010
0000
,
1001
0000
0100
1000
0010
0000
0100
0001
,
0010
0010
1000
0100
,
0001
1000
0001
0000
,
1010
1000
1100
0000
,
1000
0001
1000
0000
0100
0000
0001
0000
,
1000
1000
0010
0100
,
0001
1000
0010
1000
,
0001
1000
0010
0000
,
0001
1000
0001
1000
0001
0000
0100
0000
,
0001
0001
1000
0010
,
0100
0000
0100
0001
,
1010
0100
1001
0000
,
0001
0100
0001
0000
1000
0000
0010
0000
,
0100
0100
0001
0001
,
1000
0100
0001
1000
,
0010
1000
0100
0000
,
0001
1000
0001
1000
0001
0000
0010
0000
,
1000
1000
0100
0001
,
0100
0000
0010
0000
,
0110
1000
0110
0000
,
1000
0010
1000
0000
0100
0000
0001
0000
,
1000
1000
0001
0001
,
1000
0000
0100
0001
,
1000
0010
0001
0000
,
0001
1000
0001
1000
0001
0000
0100
0000
,
0010
1000
0100
0001
,
0010
0000
0100
0110
,
1001
0010
0100
0000
,
1000
0010
1000
0000
0100
0000
1000
0000
,
1001
0000
0100
0000
,
0001
0000
0100
0000
,
0110
0100
1001
0000
,
0001
1000
0001
1000
0001
0000
0100
0000
,
0010
0000
1000
0000
,
0001
1000
0010
0110
,
1001
0000
0000
0000
;

//---------------dance-single - ----------------
#NOTES:
     dance-single:
     :
     Hard:
     7:
     0.525,0.492,0.279,0.000,0.060: // measure 1
1000
0010
1000
0100
0001
0000
0101
0000
,  // measure 2
0010
0001
0010
0001
0010
0000
0110
1000
,  // measure 3
0100
1000
0010
0000
0100
0001
0010
0000
,  // measure 4
1000
0000
0001
1000
1010
0000
0100
0000
,  // measure 5
0110
1000
0001
0100
0001
0000
0010
0000
,  // measure 6
1000
0010
1000
0100
1000
0000
1000
0100
,  // measure 7
0001
0000
0001
0010
1000
0000
1000
0010
,  // measure 8
0101
0000
0100
0000
0001
1000
0010
0000
,  // measure 9
1000
0001
0100
0001
0100
0000
0010
0000
,  // measure 10
1010
0000
0100
0000
0001
0000
0100
0000
0010
0000
0001
1000
0001
0000
0010
0000
,  // measure 11
0100
0010
1000
0000
1000
0100
0001
0100
,  // measure 12
0001
0000
0010
1000
0110
0000
0001
0000
,  // measure 13
0110
1000
0010
0010
0001
0000
0100
0000
,  // measure 14
0001
0100
1000
1000
0010
0000
0100
0010
,  // measure 15
1001
0100
0010
0000
1000
0100
1000
0010
,  // measure 16
0100
0001
0100
0000
0100
0100
0100
0001
,  // measure 17
1010
0100
0001
0000
1000
1000
1000
0000
,  // measure 18
0011
0000
0100
0000
1000
0000
0010
0000
0100
0000
0001
0100
0001
0000
1000
0000
,  // measure 19
1010
0100
0001
0000
0110
1000
0001
0000
,  // measure 20
0101
1000
1100
0010
0100
0001
1000
0001
,  // measure 21
0010
0001
0100
0001
1000
0010
0100
0000
,  // measure 22
0010
1000
0010
0100
0110
0000
1100
0001
,  // measure 23
0010
0001
0100
0001
0010
0000
0010
1000
,  // measure 24
0100
1000
0001
0100
0010
0000
0010
0100
,  // measure 25
1000
1000
0001
0100
0010
0000
1000
0000
,  // measure 26
0001
0000
0010
0000
0001
0000
0100
0000
0001
0000
1000
0010
1000
0000
0100
0000
,  // measure 27
0001
0000
0000
0001
0000
0000
0100
0000
1000
0000
0000
0010
0000
0000
0100
0000
,  // measure 28
0001
0100
1000
0000
1000
0100
0001
0100
,  // measure 29
0010
1000
0100
0001
0010
0001
0010
0100
,  // measure 30
0001
1000
0010
0100
1000
0010
1000
0100
,  // measure 31
0001
0100
1000
0000
1000
0100
0001
0000
,  // measure 32
0001
0010
0100
0000
0100
0010
0100
0001
,  // measure 33
1000
0010
0100
0001
1000
0000
1010
0000
,  // measure 34
0101
0000
0010
0000
1000
0000
0001
0000
0100
0000
0010
0100
0010
0000
1000
0000
,  // measure 35
0001
0000
0000
0001
0000
0000
0100
0000
1000
0000
0000
0010
0000
0000
0100
0000
,  // measure 36
0001
0000
0000
0010
0000
0000
0100
0000
0001
0000
1000
0000
0010
0000
0110
0000
,  // measure 37
1000
0010
0100
0000
0001
0000
1000
0000
,  // measure 38
0010
0001
0100
0000
0001
0010
1000
0000
,  // measure 39
0010
1000
0100
0000
0001
0000
0101
0000
,  // measure 40
0010
1000
0010
0000
0100
0001
0100
0000
,  // measure 41
0010
0001
0100
0000
1000
0000
1100
0000
,  // measure 42
0010
0000
1000
0000
0010
0000
0100
0000
0001
0000
1000
0100
1000
0000
0010
0000
,  // measure 43
0100
0000
0000
0100
0000
0000
0001
0000
1000
0000
0000
0010
0000
0000
0100
0000
,  // measure 44
0001
0010
0001
0100
1000
0010
1000
0100
,  // measure 45
1001
0100
0001
1000
,  // measure 46
0010
1000
0100
0001
0100
0000
0010
0100
,  // measure 47
1001
0100
0001
0100
,  // measure 48
1000
0000
0010
0000
0001
0000
0100
0010
,  // measure 49
1010
0001
0100
0001
0100
0000
0010
0000
,  // measure 50
1010
0100
0001
0100
0110
0000
1000
0010
,  // measure 51
0100
0001
0100
0000
0010
1000
0100
0000
,  // measure 52
0001
0010
1000
0100
0001
1000
0001
0000
,  // measure 53
1001
0000
0000
0000
;
