#TITLE:Let's All Chant;
#SUBTITLE:;
#ARTIST:Straight Flush;
#TITLETRANSLIT:;
#SUBTITLETRANSLIT:;
#ARTISTTRANSLIT:;
#CREDIT:;
#BANNER:Let's All Chant.png.png;
#BACKGROUND:Let's All Chant.bg.png;
#LYRICSPATH:;
#CDTITLE:;
#MUSIC:Let's All Chant.mp3;
#OFFSET:-5.540;
#SAMPLESTART:15.900;
#SAMPLELENGTH:12.000;
#SELECTABLE:YES;
#BPMS:0.000=138.020;
#STOPS:;
#BGCHANGES:;

//---------------dance-single - ----------------
#NOTES:
     dance-single:
     :
     Easy:
     5:
     0.358,0.365,0.087,0.282,0.000:
0010
0010
0010
0001
,
0100
0100
0100
1000
,
0010
0100
0001
0010
,
0001
0100
1000
0010
,
0100
0010
0001
0100
,
1000
0010
1000
0100
,
1002
0100
0010
0103
,
0200
0010
0001
0310
,
2000
3100
0002
0013
,
2000
3001
0002
1003
,
0210
0001
0010
0301
,
2000
0100
0001
3100
,
0020
0031
2000
3100
,
0002
1003
2000
3001
,
0010
0010
1000
0100
,
0001
0000
0010
0000
1000
0010
0001
0000
,
0100
0100
1000
0010
,
0100
0000
0001
0000
1000
0001
1000
0000
,
0100
0001
0100
0001
,
0010
0000
1000
0000
0001
0001
0001
0000
,
0100
0001
1000
0010
,
0100
0000
0001
0000
1000
1000
0010
0000
,
2002
0000
3003
0000
,
0100
0000
0000
0000
,
0010
0010
0010
1000
,
0100
0100
0100
0001
,
0010
1000
0100
0010
,
1000
0100
0001
1000
,
0101
0100
0100
1000
,
0001
0010
0010
0010
,
1000
0010
0100
1000
,
0001
1000
0001
1000
0000
0000
1001
0000
,
0120
1000
0100
1030
,
0002
0010
0100
0013
,
2000
3010
0200
0301
,
2000
3001
0002
1003
,
1020
0100
1000
0130
,
0002
0010
0100
1003
,
2000
3100
0002
0103
,
0002
0013
2000
3010
,
1001
0100
0100
0100
,
0001
0000
1000
0000
0010
1000
0100
0000
,
0001
0100
0001
1000
,
0010
0000
1000
0000
0100
0001
0100
0000
,
0010
0001
1000
1000
,
0010
0000
0001
0000
1000
0100
1000
0000
,
0010
0100
0001
1000
,
0010
0000
0001
0000
1000
0001
1000
0001
,
1000
0000
0000
0000
;

//---------------dance-single - ----------------
#NOTES:
     dance-single:
     :
     Medium:
     6:
     0.464,0.391,0.282,0.347,0.000:
0010
1000
0010
1000
0000
0001
0100
0001
,
0000
1000
0010
1000
0010
0000
0110
0000
,
0000
0001
0010
0001
0000
1000
0100
1000
,
0000
0010
0100
0010
0100
0000
0110
0000
,
0000
0001
1000
0100
0000
0001
1000
0010
,
0000
0001
1000
0001
0100
0000
0101
0000
,
1020
0000
0130
0000
0002
1000
0103
0000
,
0020
1000
0130
0101
,
0020
0000
0031
0000
2000
0100
3001
0000
,
0020
0100
1030
0101
,
1020
0000
0130
0000
2000
0001
3100
0000
,
0002
0010
0103
1010
,
0200
0000
0310
0000
2000
0001
3010
0000
,
0200
0010
0310
0110
,
1000
0010
1000
0010
0000
0100
0001
0100
,
0000
0010
0001
0100
0010
0000
0110
0000
,
0000
0100
0001
0100
0000
1000
0100
1000
,
0000
0001
1000
0010
0100
0000
0110
0000
,
1000
0010
1000
0010
0000
0100
0001
0100
,
0000
0010
0001
0010
0001
0000
0110
0000
,
0000
0001
1000
0100
0000
0001
1000
0010
,
0000
0001
1000
0001
0100
0000
0101
0000
,
2002
0000
0000
0000
3003
0000
0000
0010
,
0100
0000
0010
0000
,
0002
1000
0100
0103
,
2000
0010
0100
3100
,
0002
0010
0100
1003
,
2000
3010
0200
0301
,
1020
0000
1000
0000
1000
1000
1030
0000
,
0200
0000
0010
0000
0001
0001
0301
0000
,
1000
0001
1000
0000
0001
1000
0010
0000
,
0001
1000
0001
1000
0001
0000
1001
0000
,
0120
0000
1030
0000
0200
0010
0310
0000
,
0002
0010
0103
0110
,
2000
0000
3100
0000
0002
0100
1003
0000
,
0020
0100
1030
1010
,
2000
3100
0002
0013
,
0100
0010
0100
0000
1000
0000
0101
0000
,
0020
0000
1030
0000
2000
0100
3100
0000
,
0200
0001
0310
0110
,
1000
0010
0100
0010
0000
0001
0100
0001
,
0000
1000
0010
1000
0100
0000
0110
0000
,
0000
0001
1000
0001
0000
1000
0001
1000
,
0000
0010
0100
0001
1000
0000
1010
0000
,
0100
0001
0100
0001
0000
0010
1000
0010
,
0000
0100
0001
1000
0010
0000
0110
0000
,
0000
0001
1000
0001
0000
0001
0100
1000
,
0000
0010
0100
0001
1000
0000
1001
0000
,
0101
0000
0000
0000
;

//---------------dance-single - ----------------
#NOTES:
     dance-single:
     :
     Hard:
     8:
     0.563,0.495,0.217,0.130,0.195: // measure 1
2000
0000
0000
0001
0000
0000
0001
0000
3200
0000
0000
0001
0000
0000
0001
0000
,  // measure 2
0302
0000
0000
0010
0000
0000
0010
0000
0023
0000
0000
0100
0000
0000
0100
0000
,  // measure 3
1030
0000
0000
0001
0000
0000
0100
0000
0010
0000
0000
1000
0000
0000
0100
0000
,  // measure 4
0001
0000
0000
0001
0000
0000
0100
0000
0010
0000
0000
0010
0000
0000
0100
0000
,  // measure 5
0001
0000
0000
1000
0000
0000
0010
0000
1000
0000
0000
0100
0000
0000
1000
0000
,  // measure 6
0010
0000
0000
0001
0000
0000
0100
0000
0001
0000
0000
0100
0000
0000
0110
0000
,  // measure 7
1000
0001
0100
0001
1000
0001
1000
0000
,  // measure 8
0010
1000
0100
1000
0010
0100
1001
0000
,  // measure 9
0010
0001
0100
0001
0010
0100
0010
0000
,  // measure 10
1000
0010
0100
0001
1000
0010
0110
0000
,  // measure 11
1000
0001
0100
0001
0010
1000
0100
0000
,  // measure 12
0001
1000
0100
1000
0010
0100
1001
0000
,  // measure 13
0010
0100
0001
0010
1000
0010
1000
0000
,  // measure 14
0100
1000
0100
0001
0010
0100
1010
0000
,  // measure 15
0100
0000
0001
0000
0100
0000
0010
1000
0000
0000
0100
0000
1000
0000
0001
1000
,  // measure 16
0000
0000
0010
0000
0100
0000
0001
0100
0000
0000
0010
0000
1010
0000
0000
0000
,  // measure 17
0100
0000
0100
0000
0001
0000
1000
0010
0000
0000
0100
0000
0001
0000
0010
0001
,  // measure 18
0000
0000
0100
0000
0001
0000
1000
0001
0000
0000
0100
0000
0110
0000
0000
0000
,  // measure 19
1000
0000
0010
0000
1000
0000
0001
0100
0000
0000
0010
0000
1000
0000
0010
0100
,  // measure 20
0000
0000
0010
0000
1000
0000
0001
0100
0000
0000
0010
0000
0110
0000
0000
0000
,  // measure 21
0001
0000
1000
0000
0001
0000
0100
0001
0000
0000
0010
0000
1000
0000
0100
1000
,  // measure 22
0000
0000
0010
0000
0100
0000
0001
1000
0001
0000
0100
0000
0010
0000
1000
0000
,  // measure 23
2002
0000
0000
0000
3003
0000
0000
0010
,  // measure 24
0100
0001
1000
0000
,  // measure 25
1000
0100
1000
0010
0001
0100
0001
0010
,  // measure 26
0100
0001
0100
1000
0001
1000
0001
0010
,  // measure 27
1000
0100
1000
0010
0001
0100
0001
0010
,  // measure 28
0100
0001
1000
0010
0100
0001
1001
0000
,  // measure 29
2000
0100
0100
0000
0100
0100
3100
0000
,  // measure 30
0002
0010
0100
0000
0010
0010
0013
0000
,  // measure 31
0001
0010
0100
1000
0010
0100
0001
0000
,  // measure 32
0010
0100
0010
0001
1001
0000
0101
0000
,  // measure 33
0020
1000
0100
0000
0100
0100
0130
0000
,  // measure 34
0001
1000
0010
0000
0100
0001
0101
0000
,  // measure 35
0002
0010
0010
0000
1000
0010
0013
0000
,  // measure 36
0100
0001
1000
0010
0101
0000
1010
0000
,  // measure 37
0100
0001
0100
0001
0010
1000
0100
0000
,  // measure 38
0010
0100
0001
1000
0010
0100
0001
0000
,  // measure 39
0200
0010
0010
0000
0010
0001
0301
0000
,  // measure 40
0002
1000
0013
0000
0001
1000
1100
0000
,  // measure 41
0010
0000
1000
0000
0010
0000
0100
0001
0000
0000
0010
0000
1000
0000
0010
0100
,  // measure 42
0000
0000
0001
0000
1000
0000
0001
0100
0000
0000
0010
0000
1010
0000
0100
0000
,  // measure 43
0001
0000
1000
0000
0001
0000
0100
0001
0000
0000
0010
0000
0001
0000
0100
0001
,  // measure 44
0000
0000
0010
0000
1000
0000
0010
1000
0000
0000
0001
0000
0101
0000
0010
0000
,  // measure 45
1000
0000
0010
0000
0100
0000
0001
1000
0000
0000
0010
0000
0100
0000
0001
0100
,  // measure 46
0000
0000
0010
0000
0100
0000
0001
0010
0000
0000
1000
0000
0101
0000
1000
0000
,  // measure 47
0010
0000
1000
0000
0100
0000
1000
0010
0000
0000
0100
0000
0001
0000
1000
0001
,  // measure 48
0000
0000
0100
0000
0001
0000
1000
0010
1000
0000
0100
0000
0001
0000
1000
0000
,  // measure 49
1001
0000
0000
0000
;
