#TITLE:GET IT RIGHT;
#SUBTITLE:;
#ARTIST:ARETHA FRANKLIN;
#TITLETRANSLIT:;
#SUBTITLETRANSLIT:;
#ARTISTTRANSLIT:;
#CREDIT:;
#BANNER:GET IT RIGHT.png.png;
#BACKGROUND:GET IT RIGHT.bg.png;
#LYRICSPATH:;
#CDTITLE:;
#MUSIC:GET IT RIGHT.mp3;
#OFFSET:-4.140;
#SAMPLESTART:31.860;
#SAMPLELENGTH:12.000;
#SELECTABLE:YES;
#DISPLAYBPM:121.000;
#BPMS:0.000=121.140,7.000=120.800,56.000=121.000,71.000=121.700,96.000=121.200,120.000=121.700;
#STOPS:;
#BGCHANGES:;

//---------------dance-single - ----------------
#NOTES:
     dance-single:
     :
     Easy:
     4:
     0.281,0.314,0.331,0.000,0.000:
1000
0100
0010
0100
,
0010
1001
0000
0100
,
1001
0010
0001
0001
,
0100
0010
1000
1000
,
0100
1000
0001
0001
,
0101
1010
0000
0100
,
1001
0100
0001
0100
,
1000
0000
1000
0100
,
0001
0001
0010
0100
,
0010
0000
0100
0101
,
1010
0100
0001
1000
,
0010
0000
0010
0100
,
0001
0001
1000
0010
,
0100
1010
0000
0101
,
1000
1000
0001
0001
,
1000
0001
1000
0110
,
0100
0001
0100
1000
,
0010
0110
0000
1000
,
0011
0001
0100
0100
,
1000
0010
1000
1000
,
0001
0100
1000
0100
,
0010
0110
0000
0100
,
0001
0001
0001
0000
,
0001
0100
1000
0100
,
1000
1000
1000
0010
,
0001
0010
1000
0100
,
0110
0001
0100
0000
,
0001
0010
1000
0010
,
0100
0010
0010
0000
,
0101
1010
0101
1010
,
0110
0100
0011
1000
,
1100
0101
0010
1001
,
0100
0001
0100
1000
,
0010
1001
0000
0100
,
0001
0001
0100
1000
,
0010
0100
0010
1001
,
0100
0100
0001
0010
,
0110
1001
0000
0100
,
1001
0010
1000
0000
,
0100
1000
0100
0001
,
0010
0010
0001
0000
,
0110
1001
0000
0010
,
1001
0000
0000
0000
;

//---------------dance-single - ----------------
#NOTES:
     dance-single:
     :
     Medium:
     5:
     0.348,0.337,0.353,0.000,0.000:
1000
0000
0100
0010
0000
0000
0100
0000
,
1000
0001
0101
0000
0000
0000
0010
0000
,
1001
0000
0100
0000
0010
1000
0100
0000
,
0010
0000
0001
0000
0100
0001
0010
0000
,
1000
0000
0001
0000
1000
0001
1000
0000
,
0010
0100
1001
0000
0000
0000
0010
0000
,
1001
0000
0100
0000
0001
0100
0001
0000
,
0010
0000
1000
0000
0100
1000
0010
0000
,
0110
0000
1000
0000
0001
0100
1000
0000
,
0010
0100
1001
0000
0000
0000
0010
0000
,
1010
0000
0100
0000
1000
0100
1000
0000
,
0010
0000
0100
0000
0001
0010
0001
0000
,
0100
0000
0001
0000
0010
0010
1000
0000
,
0100
0010
1001
0000
0000
0000
0100
0000
,
0010
1000
0010
0000
0100
0001
0100
0000
,
0010
1010
0100
0101
,
0010
1000
0010
0000
0100
0000
0001
0000
,
0010
0100
1001
0000
0000
0000
0010
0000
,
1000
0010
1000
0000
0001
0100
0001
0000
,
0010
0011
0100
1001
,
0010
1000
0100
0000
0100
0000
0001
0000
,
0010
0100
1001
0000
0000
0000
0010
0000
,
1000
0000
0010
0010
0000
0000
0000
0000
,
0100
0001
0100
0001
0100
0000
0010
0000
,
1000
0000
0001
0100
0000
0110
0000
1000
,
0000
0001
0101
1010
,
0100
0000
0010
0010
0000
0000
0000
0000
,
0100
0010
0100
0010
0001
0000
0100
0000
,
0110
0000
1000
0001
0000
0000
0100
0000
,
1100
0101
0110
1001
,
1010
1000
1100
0100
,
0001
0100
0001
0000
0010
1000
0010
0000
,
0110
0000
1000
0000
0001
1000
0100
0000
,
0010
0100
1001
0000
0000
0000
0010
0000
,
1000
0010
1000
0000
0001
0100
0001
0000
,
0010
0011
0110
1001
,
0010
0000
0100
0000
0001
0100
1000
0000
,
0010
0100
1001
0000
0000
0000
0010
0000
,
1001
0000
0100
0000
0001
0100
0001
0000
,
0010
0000
1000
0000
0100
1000
0100
0000
,
0010
0000
0100
0000
0001
1000
0010
0000
,
0100
0010
1001
0000
0000
0000
0100
0000
,
1001
0000
0000
0000
;

//---------------dance-single - ----------------
#NOTES:
     dance-single:
     :
     Hard:
     7:
     0.487,0.494,0.417,0.000,0.000: // measure 1
0010
0100
0001
1000
0010
0000
0100
0000
,  // measure 2
0010
0100
1001
0000
0000
0100
0010
1000
,  // measure 3
0101
0000
0010
0000
1000
0010
0100
0000
,  // measure 4
1100
0100
0101
0011
,  // measure 5
1000
0010
0100
0010
0001
1000
0010
0000
,  // measure 6
0100
0010
1001
0000
0100
0001
0100
0001
,  // measure 7
0010
1000
0100
0000
0010
0001
0100
0010
,  // measure 8
1000
0001
0100
0000
0010
0000
1001
0000
,  // measure 9
0100
0010
0100
0000
1000
0100
1000
0010
,  // measure 10
0100
0001
0101
0000
0010
0000
1010
0000
,  // measure 11
0101
0010
1000
0000
0100
0001
1000
0000
,  // measure 12
0010
1000
0010
0100
0001
0000
0100
0000
,  // measure 13
0010
1000
0100
0000
0001
0001
0010
0000
,  // measure 14
0100
0010
1001
0000
0000
0100
0010
0000
,  // measure 15
0010
1000
0100
1000
0010
0001
0100
0001
,  // measure 16
0010
1000
0010
0001
0100
0010
1001
0000
,  // measure 17
0010
1000
0100
1000
0010
0001
0100
0001
,  // measure 18
0010
1001
1001
0000
0010
0100
1000
0000
,  // measure 19
1000
0010
1000
0100
0001
0010
0001
0100
,  // measure 20
1000
0100
0001
0100
0010
0100
1001
0000
,  // measure 21
1000
0010
1000
0100
0001
0010
0001
0100
,  // measure 22
0010
1001
1001
0000
0010
1000
0100
1000
,  // measure 23
0010
0100
0001
1000
0001
0100
0001
0000
,  // measure 24
0010
0100
1010
0000
0100
0001
0101
0000
,  // measure 25
0010
1000
0100
1000
0000
0010
0000
0110
,  // measure 26
0000
1000
0001
0100
0010
1000
0001
0100
,  // measure 27
1010
0100
0001
0100
0000
0010
1000
0000
,  // measure 28
0100
1000
0010
0000
0010
0001
0100
0000
,  // measure 29
0110
1000
0001
0100
0000
0100
0001
0010
,  // measure 30
0001
0101
1000
1010
0001
0100
1001
1001
,  // measure 31
1001
0010
1000
0100
0001
0001
0001
0100
,  // measure 32
0010
1000
0001
0100
0010
0100
1001
0000
,  // measure 33
0010
1000
0100
1000
0010
0001
0100
0001
,  // measure 34
0010
0100
1001
0000
0010
0001
0100
0000
,  // measure 35
0110
1000
0010
1000
0100
0001
0010
0001
,  // measure 36
1000
0100
0001
0100
0010
0100
1001
0000
,  // measure 37
1000
0010
1000
0100
0001
0010
0001
0100
,  // measure 38
0010
1001
1001
0000
0010
1000
0100
0001
,  // measure 39
0010
0010
0010
0010
0001
0100
0001
0000
,  // measure 40
0010
1000
0100
0010
0110
0000
0101
0000
,  // measure 41
1010
0100
1000
0010
0100
0001
1000
0000
,  // measure 42
0010
1001
1001
0000
0010
0100
0001
0000
,  // measure 43
1001
0000
0000
0000
;
