#TITLE:FREEDOM TO LOVE;
#SUBTITLE:;
#ARTIST:LEXTER;
#TITLETRANSLIT:;
#SUBTITLETRANSLIT:;
#ARTISTTRANSLIT:;
#CREDIT:;
#BANNER:FREEDOM TO LOVE.png.png;
#BACKGROUND:FREEDOM TO LOVE.bg.png;
#LYRICSPATH:;
#CDTITLE:;
#MUSIC:FREEDOM TO LOVE.mp3;
#OFFSET:-8.600;
#SAMPLESTART:60.420;
#SAMPLELENGTH:12.000;
#SELECTABLE:YES;
#BPMS:0.000=127.020;
#STOPS:;
#BGCHANGES:;

//---------------dance-single - ----------------
#NOTES:
     dance-single:
     :
     Easy:
     3:
     0.213,0.259,0.161,0.000,0.000:
0110
0000
0000
0000
,
0100
0000
0000
0000
,
0001
0000
0000
0000
,
0010
0000
0010
1000
,
1010
0100
0001
0000
,
0001
0001
0010
0000
,
0110
1000
0001
0000
,
0100
0010
0010
0000
,
1100
0001
0100
0000
,
0010
0010
1000
0000
,
1001
0010
0100
0000
,
0001
0100
0100
0000
,
0010
1000
0000
1000
,
0010
1000
0000
1000
,
0001
0100
0000
0001
,
0100
0001
0000
0001
,
0010
0100
0000
0010
,
0100
0010
0000
0010
,
1001
0000
0100
0000
,
0001
0000
0100
0010
,
1001
0000
0010
0000
,
0100
0000
0001
0100
,
0010
0000
1000
0000
,
1010
0000
0010
0100
,
0001
0000
1000
0000
,
0010
0100
0000
1001
,
0010
0000
1000
0100
,
1001
0110
1001
0000
,
1001
0000
0010
0010
,
0010
0000
0100
0001
,
0100
0000
0001
1000
,
0010
0000
0100
0000
,
0001
0001
0001
0001
,
0100
0000
0010
0000
,
1000
1000
1000
1000
,
0010
0000
0100
0001
,
1001
0000
0001
0100
,
1000
0000
1000
0100
,
0001
0000
0001
0010
,
1000
0000
1000
0010
,
0001
0001
0001
0001
,
0010
0000
0100
0000
,
0010
0010
0010
0010
,
1000
0001
0000
0100
,
1001
0000
0000
0000
;

//---------------dance-single - ----------------
#NOTES:
     dance-single:
     :
     Medium:
     6:
     0.367,0.353,0.203,0.000,0.000:
0110
0000
0000
0000
,
0010
0100
0001
0100
,
0010
0000
0000
0100
0100
0000
0000
0100
,
0010
0000
0000
0010
0010
0000
0100
0000
,
1001
0000
0100
0001
0010
0000
0100
0000
,
0001
0000
0010
1000
0100
0000
0010
0000
,
0001
0000
0100
1000
0010
0000
0100
0000
,
1000
0000
0010
0001
0100
0000
0001
0000
,
0010
0000
1000
0001
1000
0000
0010
0000
,
0100
0000
0001
1000
0001
0000
0100
0000
,
0010
0000
1000
0001
0100
0000
0010
0000
,
0100
0000
0100
0001
0100
0000
0110
0000
,
1000
0000
1000
0001
0000
0001
0100
0000
,
0010
0000
1000
0010
0000
0100
1000
0000
,
0010
0000
0100
0001
0000
0010
0001
0000
,
0100
0000
0010
1000
0000
0100
1000
0000
,
0010
0000
0100
0001
0000
1000
0001
0000
,
0010
0000
0100
0010
0000
1000
0001
0000
,
1010
0000
0100
1000
0000
0010
1000
0001
,
0100
0000
0010
0010
0000
0100
0001
0000
,
1001
0000
0100
0001
0000
0010
0010
0000
,
0100
0000
0001
0010
0000
0100
1000
0000
,
0010
0000
1000
1000
0000
0010
1000
0000
,
0100
0000
1000
0010
0000
0100
0001
0000
,
0110
0000
1000
0001
0000
0100
0001
0000
,
0010
1000
0001
0100
0000
1001
0100
0001
,
0000
0001
0010
0001
0000
0100
0000
0001
,
1000
0000
0110
0000
1100
0001
0100
1000
,
1001
0000
0010
0000
1000
0000
0010
1000
,
0100
0000
1000
0000
0001
0000
0010
0001
,
0010
0000
0100
0000
0001
0000
1000
0001
,
1000
0100
0001
0100
,
0010
1000
0010
1000
0010
1000
0010
0000
,
0100
0101
0010
0110
,
0001
0010
0001
0010
0001
0010
0001
0000
,
1000
0000
0101
0000
1000
0000
0101
1000
,
0010
0000
0001
0000
0100
0000
0010
1000
,
0010
0000
0100
0000
0001
0000
0100
0001
,
0010
0000
0100
0000
0001
0000
1000
0001
,
1000
0100
0010
1000
,
0001
0100
0001
0100
0001
0100
0001
0000
,
0010
1010
0100
0101
,
1000
0001
1000
0001
1000
0001
1000
0000
,
0010
0110
1000
0110
,
1001
0000
0000
0000
;

//---------------dance-single - ----------------
#NOTES:
     dance-single:
     :
     Hard:
     8:
     0.512,0.495,0.246,0.000,0.294: // measure 1
0110
0000
0000
0000
,  // measure 2
0100
0000
0001
1000
0010
0000
0100
0001
,  // measure 3
1000
0000
0000
0010
0000
0000
0010
0000
0000
0010
0000
0000
0010
0000
0010
0000
,  // measure 4
0100
0000
0000
0100
0000
0000
0100
0000
0000
0100
0000
0000
0100
0000
0010
0000
,  // measure 5
1001
0000
0000
0100
0001
0000
0010
0000
1000
0000
0010
0000
0100
0000
0000
0000
,  // measure 6
0001
0000
0000
0100
0001
0000
0010
0000
1000
0000
0010
0000
1001
0000
0000
0000
,  // measure 7
0010
0000
0000
0100
0001
0000
0010
0000
1000
0000
0100
0000
1000
0000
0000
0000
,  // measure 8
0010
0000
0000
1000
0100
0000
0010
0000
0100
0000
0010
0000
1001
0000
0000
0000
,  // measure 9
0100
0000
0000
0001
0010
0000
0001
0000
0100
0000
0001
0000
0010
0000
0000
0000
,  // measure 10
0100
0000
0000
0001
1000
0000
0010
0000
0100
0000
0010
0000
1001
0000
0000
0000
,  // measure 11
0010
0000
0000
1000
0100
0000
1000
0000
0001
0000
0100
0000
0001
0000
0000
0000
,  // measure 12
0010
0000
0000
0100
0001
0000
0010
0000
1000
0000
0100
0000
1001
0000
0100
0000
,  // measure 13
0010
0000
0000
1000
0010
0000
0010
0000
0000
0000
0100
0000
0000
0000
0001
0000
,  // measure 14
0010
0000
0000
1000
0001
0000
0100
0000
0000
0000
0110
0000
0000
0000
1000
0000
,  // measure 15
0001
0000
0000
0100
0001
0000
0010
0000
0000
0000
0100
0000
0000
0000
0001
0000
,  // measure 16
0010
0000
0000
0010
0100
0000
0001
0000
0000
0000
0101
0000
0000
0000
0010
0000
,  // measure 17
1000
0000
0000
0100
1000
0000
0010
0000
0000
0000
0100
0000
0000
0000
0001
0000
,  // measure 18
0010
0000
0000
0100
0010
0000
1000
0000
0000
0000
0101
0000
0000
0000
0010
0000
,  // measure 19
1000
0000
0000
0001
0100
0000
0001
0000
0000
0000
0010
0000
0000
0000
1000
0000
,  // measure 20
0010
0000
0000
0100
0010
0000
1000
0000
0000
0000
0110
0000
0000
0000
1000
0000
,  // measure 21
0001
0000
0000
0010
0001
0000
0100
0000
0000
0000
0001
0000
0000
0000
1000
0000
,  // measure 22
0010
0000
0000
0100
0010
0000
1000
0000
0000
0000
1001
0000
0000
0000
0100
0000
,  // measure 23
0001
0000
0000
0010
0100
0000
1000
0000
0000
0000
0001
0000
0000
0000
0010
0000
,  // measure 24
0100
0000
0000
1000
0001
0000
0100
0000
0000
0000
0110
0000
0000
0000
1000
0000
,  // measure 25
0001
0000
0000
0010
0001
0000
0100
0000
0000
0000
0001
0000
0000
0000
0010
0000
,  // measure 26
0100
0000
0000
0010
1000
0000
0100
0000
0000
0000
1001
0000
0000
0000
0100
0000
,  // measure 27
0001
1001
0000
0010
0000
0001
0100
0010
,  // measure 28
0101
0000
0010
0000
0110
0000
1000
0000
0001
1000
0001
1000
0001
0000
0010
0000
,  // measure 29
0100
0000
0000
0010
1000
0000
0100
0000
1000
0000
0100
0000
1000
0000
0010
0000
,  // measure 30
0100
0000
0000
0001
0100
0000
0010
0000
1000
0000
0001
0000
1000
0000
0100
0000
,  // measure 31
0010
0000
0000
0001
0010
0000
0001
0000
0100
0000
0010
0000
1000
0000
0010
0000
,  // measure 32
0100
0000
0000
0010
1000
0000
0001
0000
0100
0000
0001
0000
0100
0000
0110
0000
,  // measure 33
1000
0000
0001
0100
0001
0100
0001
0100
0001
0000
0001
0000
0001
0000
0000
0000
,  // measure 34
0101
0000
0000
0010
1000
0000
0100
0000
1001
0000
0000
0100
0010
0000
1000
0000
,  // measure 35
0010
0000
1000
0100
1000
0100
1000
0100
1000
0000
1000
0000
1000
0000
0000
0000
,  // measure 36
0100
0000
0000
0001
0100
0000
0010
0000
1000
0000
0000
0010
1000
0000
0100
0000
,  // measure 37
1001
0000
0000
0100
0001
0000
0010
0000
1000
0000
0100
0000
1000
0000
0010
0000
,  // measure 38
0100
0000
0000
0001
1000
0000
0001
0000
0100
0000
0001
0000
0010
0000
1000
0000
,  // measure 39
0001
0000
0000
0010
0100
0000
0001
0000
1000
0000
0010
0000
0100
0000
0001
0000
,  // measure 40
0010
0000
0000
0001
0100
0000
0010
0000
1000
0000
0010
0000
0100
0000
0001
0000
,  // measure 41
1000
0000
0001
1000
0001
1000
0001
1000
0001
0000
0001
0000
0001
0000
0000
0000
,  // measure 42
0110
0000
0000
1000
0001
0000
0100
0000
0001
0000
0000
0010
0001
0000
0100
0000
,  // measure 43
0001
0000
0100
0001
0100
0001
0100
0001
0100
0000
0100
0000
0100
0000
0000
0000
,  // measure 44
1010
0000
0000
0100
0001
0000
0010
0000
0100
0000
0100
0000
0001
0000
0000
0000
,  // measure 45
1001
0000
0000
0000
;
