#TITLE:Fly Away;
#SUBTITLE:;
#ARTIST:CLOCK;
#TITLETRANSLIT:;
#SUBTITLETRANSLIT:;
#ARTISTTRANSLIT:;
#CREDIT:;
#BANNER:FLY AWAY.png.png;
#BACKGROUND:FLY AWAY.bg.jpg;
#LYRICSPATH:;
#CDTITLE:;
#MUSIC:FLY AWAY.mp3;
#OFFSET:-5.660;
#SAMPLESTART:33.100;
#SAMPLELENGTH:12.000;
#SELECTABLE:YES;
#BPMS:0.000=176.600;
#STOPS:;
#BGCHANGES:;

//---------------dance-single - ----------------
#NOTES:
     dance-single:
     :
     Easy:
     4:
     0.364,0.344,0.216,0.000,0.000:
0010
0001
0010
0100
,
0010
0010
0010
1000
,
0100
0001
0100
1000
,
0001
0001
0001
1000
,
0101
0010
1000
0100
,
1000
1000
0010
0100
,
0001
0001
0100
0001
,
0010
1000
0010
0101
,
0010
0010
0010
0001
,
0100
0001
0100
1000
,
0100
0100
0001
0010
,
0100
0100
0100
0110
,
1001
0010
0001
0100
,
0001
0010
0001
0100
,
1000
1000
0001
0001
,
0100
0001
1000
0010
,
1001
0100
1000
0010
,
0100
0100
1000
0010
,
1000
1000
1000
0100
,
0010
0001
0100
0101
,
0110
1000
0001
0100
,
0001
0001
0001
0100
,
0010
1000
0010
0100
,
1000
1000
0001
0100
,
1001
0010
0001
0100
,
0001
0001
0001
0100
,
0001
0010
1000
0100
,
0010
0010
0100
0101
,
1001
0100
0001
0010
,
0001
0010
0001
0100
,
0010
1000
0001
0100
,
0010
0010
0010
1000
,
0010
0100
0001
0010
,
1000
0010
0010
0100
,
0001
0010
0001
0100
,
0010
1000
0010
1010
,
1001
0100
0001
0010
,
0110
0001
1000
0010
,
1000
1000
0100
1000
,
0010
0010
0001
0100
,
0010
0001
0100
0001
,
0010
1000
0100
1000
,
0010
0100
0100
0010
,
0001
0001
0001
1000
,
1001
0000
0000
0010
,
0100
0000
0000
0000
,
1001
0000
0000
0100
,
0001
0001
0001
1000
,
1001
0000
0000
0100
,
0001
0000
0000
0000
,
1001
0000
0000
0100
,
0001
0100
1000
0000
,
1001
0000
0000
0000
;

//---------------dance-single - ----------------
#NOTES:
     dance-single:
     :
     Medium:
     6:
     0.440,0.406,0.457,0.000,0.000:
1000
0010
0001
0100
,
0010
0010
0010
0001
,
0100
0001
1000
0100
,
0010
0010
0010
1010
,
1001
0100
0001
0010
,
0011
0100
0001
1000
,
0010
0010
1000
0001
,
1000
0001
1000
0000
0001
0000
0101
0000
,
0010
0010
0001
0101
,
0010
1000
0001
1100
,
0010
1000
0010
0100
,
0001
1000
0001
0000
0010
0000
0101
0000
,
1001
0010
0001
0100
,
1001
0001
0010
0001
,
0100
0001
0010
1000
,
0010
1000
0010
0000
0100
0000
0101
0000
,
1001
0010
0010
1000
,
1010
0010
0001
0100
,
0010
0001
0010
0000
1000
0100
1000
0000
,
0010
0010
0100
0110
,
1001
0000
0100
0000
0001
0000
0100
0001
,
0100
0001
0010
1000
,
1010
0000
0100
0000
0001
0000
1000
0001
,
1000
1000
0010
1010
,
1001
0000
0010
0000
0001
0000
0100
0001
,
0010
0010
1000
0001
,
1001
0000
0100
0000
0001
0000
0010
0100
,
0010
0010
1000
0110
,
1010
0100
0001
1000
,
1100
0010
0001
0100
,
0101
0010
0001
1000
,
0011
0100
0110
1000
,
1001
0000
0100
0000
0001
1000
0001
0000
,
0010
0010
0100
0001
,
1001
0010
1000
0001
,
1000
0001
1000
0000
0100
0000
0101
0000
,
1001
0010
1000
0001
,
0011
1000
0001
0100
,
0001
1000
0001
0100
,
0100
1000
0001
0000
0010
0000
1010
0000
,
1001
0100
0001
0100
,
0110
1000
0001
0100
,
1001
0100
0001
0010
,
0001
0010
0001
0000
1000
0000
0110
0000
,
1001
0010
0010
0001
,
0100
0000
0001
0000
,
0010
1000
0001
0100
,
1000
0010
1000
0000
0100
0000
0101
0000
,
1001
0010
1000
0001
,
0100
0000
0001
0000
,
0010
0001
0010
0000
,
0100
0010
0100
0001
,
1001
0000
0000
0000
;

//---------------dance-single - ----------------
#NOTES:
     dance-single:
     :
     Hard:
     7:
     0.515,0.500,0.325,0.000,0.000: // measure 1
0010
1000
0000
0001
0100
0001
0000
0001
,  // measure 2
0010
0001
0000
0100
0010
0100
0000
0001
,  // measure 3
1000
0010
0000
0100
0010
0100
0000
0001
,  // measure 4
1000
0001
1000
0000
0001
1000
0010
0000
,  // measure 5
1001
0000
1000
0000
0010
1000
0010
0000
,  // measure 6
1001
0000
0010
0000
0001
1000
0010
0000
,  // measure 7
0110
0000
0001
0000
0001
0010
0001
0000
,  // measure 8
0100
0001
0100
0000
0001
0000
1000
0000
,  // measure 9
0110
0000
0001
0000
0010
0100
0010
0000
,  // measure 10
1001
0000
0001
0000
0100
0001
0010
0000
,  // measure 11
0010
1000
0001
0000
0010
1000
0001
0000
,  // measure 12
1000
0001
1000
0000
0100
0000
0010
0000
,  // measure 13
1001
0000
0010
0000
1000
0000
0001
1000
,  // measure 14
0010
0000
0100
0000
0010
0000
0100
0001
,  // measure 15
0010
0000
1000
0000
0001
1000
0001
0000
,  // measure 16
0100
0010
1000
1001
,  // measure 17
0010
0000
0001
0000
0100
1000
0100
0000
,  // measure 18
0010
1000
0010
1000
,  // measure 19
0100
0010
0001
0000
0100
0001
0100
0000
,  // measure 20
1000
0100
0001
1001
,  // measure 21
0011
0000
1000
0000
0001
0010
0001
0000
,  // measure 22
1000
0000
0001
0000
0100
0001
0100
0000
,  // measure 23
0010
1000
0010
0001
,  // measure 24
0100
0010
0001
0000
1000
0001
0010
0000
,  // measure 25
1001
0000
1000
0000
0010
0000
0100
0010
,  // measure 26
0001
0000
1000
0000
0010
0000
1000
0001
,  // measure 27
1000
0001
0100
0010
,  // measure 28
1001
0000
1000
0000
0001
1000
0010
0000
,  // measure 29
0110
0000
1000
0000
0010
0000
1000
0010
,  // measure 30
1000
0000
0100
0000
1000
0000
0100
1000
,  // measure 31
0100
0000
0010
0000
0100
0000
0010
0001
,  // measure 32
0100
0000
0001
0000
1000
0001
1000
0000
,  // measure 33
0110
0000
0010
0000
0100
0001
0100
0000
,  // measure 34
0010
0000
0010
0000
1000
0001
0100
0000
,  // measure 35
0010
0000
0001
0000
0010
0001
0100
0000
,  // measure 36
0100
0001
1000
0000
1001
0000
1010
0000
,  // measure 37
0101
0000
1001
0000
0010
1000
0100
0000
,  // measure 38
1010
0000
0100
0000
0001
1000
0010
0000
,  // measure 39
0110
0000
1000
0000
0001
0010
0001
0000
,  // measure 40
0100
0001
0100
0000
0010
0000
0011
0000
,  // measure 41
1001
0000
0100
0000
0001
1000
0010
0000
,  // measure 42
0101
0000
0010
0000
1000
0001
0010
0000
,  // measure 43
1010
0000
0100
0000
0001
0100
0010
0100
,  // measure 44
1000
0001
1000
0000
0001
1000
0010
0000
,  // measure 45
1001
0000
1000
0010
0000
0010
0100
0010
,  // measure 46
0001
0000
0001
0100
0000
0100
0001
0000
,  // measure 47
0110
0000
0010
1000
0000
1000
0010
0100
,  // measure 48
0001
1000
0001
0010
1000
0001
1000
0000
,  // measure 49
1001
0000
0010
1000
0000
1000
0010
0100
,  // measure 50
0010
0000
0001
0010
0000
0010
0100
0000
,  // measure 51
0001
0000
0001
0100
0000
0100
0010
0001
,  // measure 52
1000
0001
1000
0010
0001
1000
0001
0000
,  // measure 53
1001
0000
0000
0000
;
