#TITLE:EUPHORIA;
#SUBTITLE:;
#ARTIST:THE HOUSE CREW;
#TITLETRANSLIT:;
#SUBTITLETRANSLIT:;
#ARTISTTRANSLIT:;
#CREDIT:;
#BANNER:EUPHORIA.png.png;
#BACKGROUND:EUPHORIA.bg;
#LYRICSPATH:;
#CDTITLE:;
#MUSIC:EUPHORIA.mp3;
#OFFSET:-13.020;
#SAMPLESTART:38.574;
#SAMPLELENGTH:12.000;
#SELECTABLE:YES;
#BPMS:0.000=149.790;
#STOPS:;
#BGCHANGES:;

//---------------dance-single - ----------------
#NOTES:
     dance-single:
     :
     Easy:
     6:
     0.391,0.353,0.313,0.000,0.000:
1001
0000
1000
0000
1000
0000
0100
0010
,
0001
0010
0100
1010
,
1001
0000
0001
0000
0001
0000
0100
0001
,
0010
0010
1000
0101
,
0110
0000
1000
0000
0010
0000
0001
1000
,
0100
0001
1000
0011
,
1001
0000
0010
0000
0001
0000
0100
1000
,
0010
0010
0001
1001
,
0100
0100
0100
0000
0001
0000
0010
0000
,
0010
1000
0010
0000
0100
0000
0101
0000
,
0010
0010
0010
0000
1000
0000
0001
0000
,
0100
0001
0010
0000
0100
0000
0101
0000
,
0010
0010
1000
0000
0100
0000
1000
0000
,
0001
1000
0001
0000
0010
0000
0110
0000
,
1000
1000
0100
0000
0001
0000
0100
0000
,
0001
0001
0010
0000
0100
0000
0101
0000
,
1000
0010
1000
0000
0001
0000
0100
0000
,
0001
1000
0001
0000
0100
0000
0101
0000
,
0010
0010
1000
0000
0100
0000
1000
0000
,
0010
0001
0010
0000
1000
0000
1010
0000
,
0100
0100
0001
0000
0010
0000
1000
0000
,
0001
0100
1000
0000
0001
0000
0101
0000
,
0010
0010
1000
0000
0001
0000
0010
0000
,
1000
0010
0001
0000
0100
0000
1001
0000
,
0100
0001
0100
0000
0010
0000
1000
0000
,
0001
0010
0001
0000
0010
0000
0101
0000
,
1000
0100
1000
0000
0010
0000
0001
0000
,
0100
0010
0001
0000
0100
0000
0110
0000
,
0001
1000
0100
0000
0001
0000
0010
0000
,
1000
0010
0001
0000
0100
0000
1001
0000
,
0010
1000
0010
0000
0100
0000
0001
0000
,
0010
0100
0010
0000
0100
0000
0110
0000
,
1001
0000
0000
0010
0010
0000
0100
0000
,
0000
0010
0000
0100
,
0110
0010
0010
0000
0010
0010
0010
0000
,
0010
0000
0000
0010
0010
0000
0010
0000
,
0110
0100
0100
0000
0100
0100
0100
0000
,
0100
0000
0000
0100
0100
0000
0101
0000
,
1001
1000
1000
0000
1000
1000
1000
0000
,
1000
0000
0000
1000
1000
0000
1000
0000
,
1001
0001
0001
0000
0001
0001
0001
0000
,
0001
0000
0000
0001
0001
0000
1001
0000
,
0110
0010
0010
0000
0010
0000
0000
0010
,
0010
0000
0000
0010
0010
0000
0000
1000
,
1000
1000
1000
0000
1001
0000
0000
1000
,
1000
0000
0000
1000
1000
0000
0000
0100
,
0100
0100
0100
0000
0110
0000
0000
0100
,
0100
0000
0000
0100
0100
0000
0000
0001
,
0001
0001
0001
0000
1001
0000
0000
0001
,
0001
0000
0000
0001
0001
0001
0001
0001
;

//---------------dance-single - ----------------
#NOTES:
     dance-single:
     :
     Medium:
     8:
     0.486,0.453,0.283,0.000,0.116:
0010
0100
0001
0100
0000
0100
0010
0100
,
1000
0000
1001
0000
1000
1100
0000
0010
,
0001
0100
0001
0100
0000
0010
0100
0010
,
1000
0000
0101
0000
0010
0110
0000
1000
,
0001
0010
0001
0100
0000
0001
0100
0001
,
1000
0000
0110
0000
0000
1001
0100
0001
,
0010
0100
0010
0100
0000
0001
0100
0001
,
1000
0000
1010
0000
0000
0100
1000
0010
,
0100
0001
0100
0001
0100
0000
0010
0000
,
1000
0001
0100
0010
0000
0010
1000
0100
,
0010
1000
0010
1000
0100
0000
0001
1000
,
0010
0100
0001
1000
0000
1000
0100
0001
,
0010
0001
0100
0001
0100
0000
0001
0100
,
0010
1000
0001
0100
0000
0010
1001
0000
,
0010
1000
0010
0100
0001
0001
1000
0100
,
0010
0010
1000
0100
0000
0101
0010
1000
,
0100
1000
0010
1000
0001
1000
0001
0000
,
0010
0100
0001
0100
0000
1010
0001
0100
,
0001
1000
0001
1000
0001
0000
0010
0100
,
0001
1000
0001
1000
0000
0011
1000
0100
,
0010
0100
0010
1000
0001
0001
1000
1000
,
0100
0010
1000
0001
0000
0100
1010
0000
,
0101
0010
1000
0010
0100
0001
1000
0100
,
0010
0100
0001
1000
0000
0010
0100
0010
,
1000
1000
0001
0100
0010
0010
1000
0000
,
0001
1000
0001
0010
0000
0011
0000
1100
,
1000
1000
0001
0100
0010
0010
0001
0100
,
0001
0001
1000
0001
0010
0110
0000
0110
,
0001
0001
1000
0100
0010
0010
0001
1000
,
0100
0010
0100
0010
0000
0110
0000
1010
,
0100
0100
0001
1000
0010
0010
0100
0001
,
1000
0010
1000
0100
0000
0010
1000
0001
,
0100
0000
0000
0100
0100
0000
0100
0000
,
0000
0000
0010
1000
0000
0010
0100
0000
,
1001
0000
0001
0000
0001
0000
0100
0000
0010
0000
0000
0010
0000
0000
0000
0000
,
0001
0000
0000
0001
0000
0000
0000
0000
0100
0000
0000
0100
0000
0000
0000
0000
,
1010
0000
0010
0000
0010
0000
1000
0000
0001
0000
0000
0001
0000
0000
0000
0000
,
0100
0000
0000
0100
0000
0000
0000
0000
0010
0000
0000
0010
0000
0000
0000
0000
,
0011
0000
0010
0000
0010
0000
0010
0000
0001
0000
0000
0001
0000
0000
0000
0000
,
0010
0000
0000
0010
0000
0000
0000
0000
0100
0000
0000
0100
0000
0000
0010
0000
,
1001
0000
0100
0000
0100
0000
0100
0000
0010
0000
0000
0010
0000
0000
0000
0000
,
1000
0000
0000
1000
0000
0000
0000
0000
0001
0000
0000
0001
0000
0000
0000
0000
,
0110
0000
0010
0000
1000
0000
0100
0000
0001
0000
0000
0001
0000
0000
0000
0000
,
0010
0000
0000
0010
0000
0000
0000
0000
0100
0000
0000
0001
0000
0000
0000
0000
,
0110
0000
0100
0000
0100
0000
0001
0000
1000
0000
0000
1000
0000
0000
0000
0000
,
0010
0000
0000
0010
0000
0000
0000
0000
0100
0000
0000
0100
0000
0000
0000
0000
,
0011
0000
0010
0000
0010
0000
0001
0000
0100
0000
0000
0100
0000
0000
0000
0000
,
0010
0000
0000
0010
0000
0000
0000
0000
1000
0000
0000
1000
0000
0000
0000
0000
,
0110
0000
0100
0000
0100
0000
0001
0000
1000
0000
0000
1000
0000
0000
0000
0000
,
0010
0000
0000
0010
0000
0000
0100
0000
0001
0000
0001
0000
0010
0000
1001
0000
;

//---------------dance-single - ----------------
#NOTES:
     dance-single:
     :
     Hard:
     9:
     0.581,0.453,0.565,0.000,0.157: // measure 1
0010
1000
0010
0100
0001
0100
0010
0100
,  // measure 2
0001
0001
1000
1010
0000
0010
1000
0100
,  // measure 3
0001
0001
1000
0001
0100
0001
0010
0001
,  // measure 4
0100
0001
0100
0110
0000
0010
0100
0010
,  // measure 5
0010
1000
0001
0100
0010
0100
0001
1000
,  // measure 6
0010
0010
1000
1100
0000
0100
1000
0010
,  // measure 7
0100
0001
1000
0010
1000
0100
0001
1000
,  // measure 8
0010
0100
0001
0101
0000
0100
0001
0100
,  // measure 9
0010
0010
1000
0001
0010
1000
0001
0100
,  // measure 10
0001
0010
0001
0101
0000
0010
1001
0100
,  // measure 11
0010
1000
0010
0100
1000
1000
0001
0100
,  // measure 12
0010
1000
0010
1010
0000
0100
0101
0000
,  // measure 13
0010
1000
0010
0100
0001
0010
0001
0100
,  // measure 14
0001
1000
0001
1001
0000
0010
0110
0000
,  // measure 15
0100
0001
0010
1000
0010
0010
1000
0001
,  // measure 16
0100
0001
0010
0101
0000
0010
0110
0000
,  // measure 17
1000
1000
0010
1000
0100
1000
0001
1000
,  // measure 18
0010
0100
0001
0101
0000
0010
0101
0000
,  // measure 19
1000
1000
0010
0100
0001
1000
0010
0100
,  // measure 20
0001
0010
0001
0101
0000
0010
0110
0000
,  // measure 21
1000
1000
0100
1000
0010
0100
0001
1000
,  // measure 22
0010
0010
0100
0110
0000
1000
1001
0000
,  // measure 23
0010
1000
0010
0100
0001
1000
0001
0100
,  // measure 24
0010
1000
0001
1001
0000
0010
1001
0000
,  // measure 25
1000
0100
1000
0010
1000
0001
0100
0010
,  // measure 26
0100
0100
0001
0101
0000
0010
1100
0000
,  // measure 27
0010
0010
1000
0100
0001
1000
0001
0100
,  // measure 28
0010
0100
0010
0110
0000
0100
0101
0000
,  // measure 29
0010
0001
0010
0001
1000
0010
0100
0001
,  // measure 30
1000
0010
0100
0101
0000
0010
0110
0000
,  // measure 31
1000
1000
0001
0100
0010
1000
0010
0100
,  // measure 32
0001
1000
0001
1001
0000
0100
0110
0000
,  // measure 33
1001
0000
0000
0000
0000
0000
0000
0000
0000
0100
0000
0000
0010
0000
0000
0000
0010
0000
0000
0000
0000
0000
0000
0000
,  // measure 34
0000
0000
0010
0100
0000
0001
1000
0000
,  // measure 35
1000
0010
1000
0000
0001
0000
1000
0000
0010
0000
0000
0110
0000
0000
0100
0000
,  // measure 36
0001
0000
0000
1010
0000
0000
0010
0000
0100
0000
0000
0101
0000
0000
0010
0000
,  // measure 37
1000
0010
1000
0000
0001
0000
0100
0000
0010
0000
0000
0110
0000
0000
1000
0000
,  // measure 38
0001
0000
0000
0011
0000
0000
0001
0000
1000
0000
0000
0110
0000
0000
0100
0000
,  // measure 39
0001
1000
0001
0000
0100
0000
0001
0000
0010
0000
0000
0110
0000
0000
1000
0000
,  // measure 40
0001
0000
0000
0101
0000
0000
0010
0000
1000
0000
0000
0101
0000
0000
0100
0000
,  // measure 41
0010
0100
0010
0000
1000
0000
0001
0000
0100
0000
0000
0110
0000
0000
0001
0000
,  // measure 42
0010
0000
0000
1010
0000
0000
0100
0000
0001
0000
0000
0011
0000
0000
0100
0000
,  // measure 43
0001
1000
0001
0000
0001
0000
0100
0000
0001
0000
0000
0011
0000
0000
1000
0000
,  // measure 44
0001
0000
0000
0101
0000
0000
0010
0000
1000
0000
0000
0110
0000
0000
0010
0000
,  // measure 45
1000
0000
1010
0000
0100
0000
0001
0000
0100
0000
0000
0101
0000
0000
0010
0000
,  // measure 46
1000
0000
0000
1010
0000
0000
0100
0000
0001
0000
0000
0101
0000
0000
0010
0000
,  // measure 47
0100
0001
0100
0000
0010
0000
0010
0000
1000
0000
0000
0101
0000
0000
0010
0000
,  // measure 48
0001
0000
0000
0011
0000
0000
0100
0000
0001
0000
0000
0110
0000
0000
1000
0000
,  // measure 49
0010
0000
0100
0000
0001
0000
1000
0000
0010
0000
0000
1010
0000
0000
0100
0000
,  // measure 50
0001
0000
0000
0101
0000
0000
0010
0000
0101
0000
0000
0011
0000
0000
1001
0000
;
