#TITLE:EUPHORIA;
#SUBTITLE:(NINO'S DREAM REMIX);
#ARTIST:THE HOUSE CREW;
#TITLETRANSLIT:;
#SUBTITLETRANSLIT:;
#ARTISTTRANSLIT:;
#CREDIT:;
#BANNER:EUPHORIA NINO'S DREAM REMIX.png.png;
#BACKGROUND:EUPHORIA NINO'S DREAM REMIX.bg;
#LYRICSPATH:;
#CDTITLE:;
#MUSIC:EUPHORIA (NINO'S DREAM REMIX).mp3;
#OFFSET:-6.600;
#SAMPLESTART:38.180;
#SAMPLELENGTH:12.000;
#SELECTABLE:YES;
#BPMS:0.000=149.960;
#STOPS:;
#BGCHANGES:;

//---------------dance-single - ----------------
#NOTES:
     dance-single:
     :
     Challenge:
     8:
     0.542,0.512,0.327,0.000,0.016: // measure 1
0001
0100
0000
0100
0001
0010
0000
0010
,  // measure 2
0001
0100
0000
0100
0001
1000
0000
1000
,  // measure 3
0001
0010
0000
0010
1000
0100
0000
0001
,  // measure 4
1000
0001
0000
0000
0000
1001
0101
0000
,  // measure 5
0110
1000
0001
0100
0010
0010
0010
0000
,  // measure 6
1010
0100
0001
1000
0010
0010
0010
0000
,  // measure 7
0101
1000
0001
0100
0010
0010
0010
0000
,  // measure 8
1100
0001
0100
1000
0010
0010
0010
0000
,  // measure 9
1001
0100
0001
1000
0010
0010
0010
0000
,  // measure 10
0110
1000
0001
0100
0010
0010
0010
0000
,  // measure 11
0001
1000
0001
1000
0010
0010
0010
0000
,  // measure 12
0100
0001
0100
0000
0100
0001
0100
0000
,  // measure 13
0010
0100
1001
0010
0100
0001
1000
0000
,  // measure 14
0010
1000
0100
1000
0010
0100
1001
0000
,  // measure 15
0010
0100
0001
1000
0010
0100
1001
0000
,  // measure 16
0010
0100
1001
0010
0100
0100
0100
0000
,  // measure 17
1000
0010
1001
0100
0001
1000
0010
0000
,  // measure 18
0001
1000
0010
0100
0001
1000
0101
0000
,  // measure 19
0010
1000
0001
0100
0010
0100
1001
0000
,  // measure 20
0101
0000
0000
0000
0000
0000
0000
0000
0000
0000
0100
0000
0010
0100
0010
0000
,  // measure 21
1001
0000
0100
0100
0100
0000
0001
1000
,  // measure 22
0000
1000
0010
0000
0010
0000
0100
0000
,  // measure 23
0010
1000
0010
0000
1000
0000
0100
1000
,  // measure 24
0000
0000
0101
0100
0100
0000
0000
0000
,  // measure 25
1000
0000
0010
0000
0100
0000
0001
1000
,  // measure 26
0000
0001
0010
0000
0001
0001
0100
0000
,  // measure 27
0010
1000
0001
0110
,  // measure 28
0000
0000
0000
0100
0101
0000
0110
0000
,  // measure 29
1000
0000
1000
0000
0001
1000
0100
0000
,  // measure 30
0010
0001
0100
0010
1000
0001
0100
0001
,  // measure 31
0010
1000
0100
1000
0000
0010
0100
0001
,  // measure 32
1000
1000
1000
1000
0000
0010
0100
0001
,  // measure 33
1000
0100
1010
0100
,  // measure 34
0001
0010
0100
0001
1000
0010
1000
0100
,  // measure 35
0001
0000
0100
0000
0010
0010
1000
0001
,  // measure 36
0100
0000
1010
0000
0100
0001
0100
0001
,  // measure 37
0000
0000
0000
0010
1000
0001
0100
0000
,  // measure 38
0010
1000
0100
1000
0001
1000
0010
0100
,  // measure 39
0001
0001
0001
0000
1000
0010
1000
0100
,  // measure 40
0001
1000
0100
0010
0000
0010
0100
0000
,  // measure 41
0001
1000
0101
1010
,  // measure 42
0100
0001
0100
0001
1000
0010
0100
0001
,  // measure 43
0010
0001
0100
1000
0000
0010
0010
0001
,  // measure 44
0100
0000
0001
0000
1000
0010
1000
0100
,  // measure 45
0001
0101
0010
0011
,  // measure 46
1000
1000
1000
0010
0100
0100
0001
1000
,  // measure 47
0010
0000
0101
0000
1010
0100
0001
0000
,  // measure 48
0010
0100
0010
0001
1000
0010
0100
0000
,  // measure 49
0001
0001
0010
0001
0000
0100
0001
0100
,  // measure 50
0010
0010
0010
0000
1000
0000
1010
0000
,  // measure 51
0100
0001
1000
0000
0010
1000
0100
0000
,  // measure 52
0001
1000
0001
0100
0001
0001
0001
0000
,  // measure 53
1001
0000
0000
0000
0000
0000
0100
0000
0000
0000
0010
0000
1000
0001
1000
0000
,  // measure 54
0100
0000
0000
0000
0000
0000
0000
0000
0000
0000
1000
0000
0010
0100
0010
0000
,  // measure 55
0100
0000
0000
0000
;
