#TITLE:DEPEND ON YOU;
#SUBTITLE:(SVENSON AND GIELIN RADIO EDIT);
#ARTIST:浜崎あゆみ;
#TITLETRANSLIT:;
#SUBTITLETRANSLIT:;
#ARTISTTRANSLIT:AYUMI HAMASAKI;
#CREDIT:;
#BANNER:DEPEND ON YOU (SVENSON AND GIELIN RADIO EDIT).png.png.png;
#BACKGROUND:DEPEND ON YOU (SVENSON AND GIELIN RADIO EDIT).bg.png;
#LYRICSPATH:;
#CDTITLE:;
#MUSIC:DEPEND ON YOU (SVENSON AND GIELIN RADIO EDIT).mp3;
#OFFSET:-7.780;
#SAMPLESTART:73.120;
#SAMPLELENGTH:12.000;
#SELECTABLE:YES;
#BPMS:0.000=138.000;
#STOPS:;
#BGCHANGES:;

//---------------dance-single - ----------------
#NOTES:
     dance-single:
     :
     Easy:
     4:
     0.274,0.282,0.152,0.152,0.000:
0020
0000
0130
0000
,
0200
0000
0301
0000
,
0020
0000
0130
0000
,
0110
0000
0010
0000
,
1000
0000
0000
1001
,
0110
1000
0010
0001
,
1000
0010
1000
0001
,
1000
0010
0001
0010
,
1000
0100
1000
0010
,
0001
0100
1000
0010
,
1000
0100
1000
0001
,
0010
1000
0010
0100
,
0001
0001
0001
1010
,
0200
0000
1300
0000
,
0002
0000
0013
0000
,
0100
0001
0010
0000
,
0100
1000
0100
0110
,
0200
0000
0310
0000
,
0020
0000
0130
0000
,
0100
0010
1000
0000
,
1000
0010
0100
0101
,
2000
0010
3100
0000
,
0002
1000
0013
0000
,
0100
0010
1000
0100
,
1000
0000
0010
0110
,
2000
0010
3100
0000
,
0002
0000
0010
0103
,
2000
0000
0010
0000
,
0001
0000
3100
0110
,
1001
0010
0001
0000
,
0010
0000
0100
0001
,
1000
0010
0100
0000
,
0001
0000
1000
1100
,
0010
0100
0001
0000
,
0010
0001
0010
0000
,
1000
0010
0001
0010
,
0001
0000
0100
0000
,
2000
0000
3001
0110
,
1001
0000
0100
0000
,
0010
1000
0100
1000
,
0010
0000
0100
0000
,
0001
0010
0001
0100
,
2000
0000
3010
0000
,
0200
0000
0301
0000
,
0020
0000
0130
0001
,
1001
0000
0010
0110
,
1001
0010
1000
0100
,
1000
0010
1000
0100
,
0001
0010
0001
0100
,
1000
0100
0001
0100
,
0010
1000
0100
1000
,
0010
0001
0100
0010
,
1000
0010
0001
0100
,
1000
0100
0001
1000
,
1001
0000
0000
0000
;

//---------------dance-single - ----------------
#NOTES:
     dance-single:
     :
     Medium:
     6:
     0.387,0.358,0.180,0.256,0.000:
1000
0001
0100
0000
,
0100
0100
0010
0000
,
0001
1000
0100
0000
,
1001
0000
0100
0000
,
0011
0000
0100
0010
,
1001
0000
0100
0000
0001
0001
0001
0000
,
0100
0000
0010
0000
1000
0010
0100
0000
,
1000
0000
0001
0000
1000
0001
1000
0000
,
0001
1000
0001
0000
0100
0001
0100
0000
,
0010
0000
1000
0000
0100
1000
0100
0000
,
0010
0000
0001
0000
0100
0001
0100
0000
,
0010
0000
1000
0000
0001
1000
0010
0000
,
0001
0100
0001
0000
1000
0100
1000
0000
,
1020
0100
1000
0130
,
0002
0010
0100
0013
,
0200
0301
0002
0013
,
2000
0000
3010
0000
0001
1000
0001
0000
,
0210
0001
0010
0301
,
0002
0010
1000
0103
,
2000
3100
0002
0013
,
0100
0000
0010
0000
1000
0001
1000
0000
,
1020
0100
1000
0130
,
0002
0010
0100
1003
,
2000
3100
0002
0013
,
0100
0010
0110
1001
,
0200
0010
0301
0010
,
2000
0100
3001
0110
,
0002
0103
2000
3100
,
0002
0013
2000
3010
,
0110
0000
1000
0000
1000
0100
1000
0000
,
0010
0000
0001
0000
0001
0100
0001
0000
,
0010
0000
0100
0000
0010
0100
0010
0000
,
1000
0000
0001
0000
1000
0100
0001
0000
,
0011
0000
0001
0100
0000
0000
0000
0000
,
1010
0000
1000
0100
0000
0000
0000
0000
,
0100
0000
0001
0010
0001
0000
1000
0100
,
1000
0010
0100
0001
,
1000
0001
1000
0001
0000
0000
1001
0000
,
0102
0010
0100
0103
,
2000
0010
0100
3100
,
0002
0013
2000
3100
,
0020
0100
0100
0130
,
0001
1000
0001
0100
0000
0000
0101
0000
,
0010
1000
0100
0010
0000
0000
0110
0000
,
2000
3100
0002
0013
,
0200
0001
0310
0110
,
1001
0000
0100
0000
0001
0100
0001
0000
,
0010
0000
1000
0000
0010
1000
0010
0000
,
1000
0000
0100
0000
0001
0010
0001
0000
,
1000
0100
1000
0000
0001
1000
0100
0000
,
0001
1000
0010
0000
0100
0000
0001
0000
,
1000
0010
1000
0000
0100
0000
1000
0000
,
0010
0100
0001
0000
1000
0000
0001
0000
,
1000
0001
1000
0000
0001
1000
0001
0000
,
1001
0000
0000
0000
;

//---------------dance-single - ----------------
#NOTES:
     dance-single:
     :
     Hard:
     7:
     0.465,0.435,0.180,0.256,0.038: // measure 1
0010
0000
0000
0010
0000
0000
0001
0000
0100
0000
0000
0100
0000
0000
0001
0000
,  // measure 2
1000
0000
0000
1000
0000
0000
0010
0000
0001
0000
0000
0001
0000
0000
0010
0000
,  // measure 3
1000
0000
0000
0100
0000
0000
0010
0000
0100
0000
0000
0001
0000
0000
0010
0000
,  // measure 4
1000
0000
0000
0100
0000
0000
0010
0000
0010
0000
0000
0100
0000
0000
0001
0000
,  // measure 5
1001
0000
0100
0000
0001
0010
0001
0100
,  // measure 6
0010
1000
0010
0000
0100
0001
0100
0000
,  // measure 7
0001
0010
0001
0000
1000
0100
1000
0000
,  // measure 8
0010
1000
0100
0000
0100
0001
0010
0000
,  // measure 9
0001
1000
0001
0000
1000
0001
1000
0000
,  // measure 10
1000
0100
1000
0000
1000
0010
0100
0000
,  // measure 11
0100
0001
0010
0000
0010
0100
0010
0000
,  // measure 12
0001
0010
0001
0000
0100
0010
0100
0000
,  // measure 13
0001
1000
0001
0000
1000
0001
1000
0001
,  // measure 14
1020
0000
1000
1000
0000
0100
0030
0000
,  // measure 15
0002
0000
0100
0100
0003
0000
0010
0100
,  // measure 16
0002
0000
0010
0010
0000
0100
0003
1000
,  // measure 17
0020
0000
0130
0000
0200
0000
0301
0010
,  // measure 18
2000
0000
0100
0001
0000
0100
3000
0000
,  // measure 19
0020
0000
0100
0100
0000
0000
1030
0100
,  // measure 20
0002
0000
0010
0010
0000
0100
0003
0100
,  // measure 21
2000
0000
3010
0000
0200
0000
0310
0001
,  // measure 22
1020
0000
0100
0100
0000
0130
0000
0100
,  // measure 23
0020
0000
1000
0100
0000
0000
1030
0100
,  // measure 24
0002
0000
0010
0010
0000
0100
0003
1000
,  // measure 25
0020
0000
0130
0000
0002
0000
1003
1000
,  // measure 26
2000
0000
0100
0100
3000
0010
0100
0020
,  // measure 27
1000
0000
0130
0000
1000
0000
0100
1000
,  // measure 28
0020
0031
0200
0301
,  // measure 29
2000
3010
0101
1010
,  // measure 30
0110
1000
0001
0100
0000
0001
0000
1000
,  // measure 31
0010
0000
0100
0000
0001
0000
1000
0010
,  // measure 32
1000
0000
0100
0000
0001
0000
1000
0001
,  // measure 33
0010
0000
0100
0010
0001
1000
0000
0010
,  // measure 34
0100
0000
0001
0100
0000
0000
0101
0000
,  // measure 35
0010
0000
1000
0010
0000
0000
1010
0000
,  // measure 36
0110
0000
0100
0100
0100
0000
0001
1000
,  // measure 37
0010
0001
0100
0000
0001
1000
0010
0000
,  // measure 38
0100
0010
0100
0010
0000
0000
0110
0000
,  // measure 39
1002
0000
0100
0100
0010
0000
1003
0000
,  // measure 40
2000
0100
3001
0000
0002
0010
0013
0000
,  // measure 41
2000
0000
0100
0100
0010
0000
3100
0100
,  // measure 42
0002
1000
0010
0000
0103
0000
0101
0000
,  // measure 43
2000
0000
0100
0100
3000
0000
0101
0000
,  // measure 44
0020
0000
0100
0100
0030
0000
0110
0000
,  // measure 45
1001
0000
0100
0001
1001
0000
0100
0010
,  // measure 46
0110
1000
0010
0000
0100
0001
0100
0010
,  // measure 47
0001
1000
0010
0000
0100
1000
0010
0000
,  // measure 48
0100
0001
0010
0000
0100
0010
0010
0000
,  // measure 49
1000
1000
1000
0000
0001
0001
0100
0000
,  // measure 50
0001
1000
0001
0000
1000
0001
1000
0000
,  // measure 51
0010
1000
0100
0000
0100
0001
0010
0000
,  // measure 52
0010
0001
0100
0000
0001
1000
0010
0000
,  // measure 53
0100
0001
0100
0000
0010
1000
0010
0000
,  // measure 54
0101
1000
0010
0100
0010
0001
1000
0010
,  // measure 55
1001
0000
0000
0000
;
