#TITLE:CONNECTION THROUGH SOUND;
#SUBTITLE:(NIKOLAUS REMIX);
#ARTIST:KATTY HEATH;
#TITLETRANSLIT:;
#SUBTITLETRANSLIT:;
#ARTISTTRANSLIT:;
#CREDIT:;
#BANNER:CONNECTION THROUGH SOUND (NIKOLAUS REMIX).png.png;
#BACKGROUND:CONNECTION THROUGH SOUND (NIKOLAUS REMIX).bg;
#LYRICSPATH:;
#CDTITLE:;
#MUSIC:Katty Heath - Connection Through Sound (Nikolaus Remix).mp3;
#OFFSET:-6.980;
#SAMPLESTART:53.700;
#SAMPLELENGTH:15.000;
#SELECTABLE:YES;
#BPMS:0.000=140.020;
#STOPS:;
#BGCHANGES:;

//---------------dance-single - ----------------
#NOTES:
     dance-single:
     :
     Easy:
     3:
     0.211,0.200,0.080,0.000,0.000: // measure 1
0010
0000
0010
0000
,  // measure 2
0010
0010
0010
0000
,  // measure 3
0100
0000
0100
0000
,  // measure 4
0100
0100
0100
0000
,  // measure 5
1000
0000
1000
0000
,  // measure 6
1000
1000
1000
0000
,  // measure 7
0001
0000
0001
0000
,  // measure 8
0001
0001
0001
0000
,  // measure 9
0010
0000
0010
0000
,  // measure 10
0010
0010
0010
0000
,  // measure 11
0010
0010
0010
0100
,  // measure 12
0010
0000
0000
0000
,  // measure 13
1001
1000
1000
0000
,  // measure 14
1000
0001
1000
0000
,  // measure 15
0001
1000
0001
0000
,  // measure 16
0001
0001
0001
0000
,  // measure 17
1001
0001
0001
0000
,  // measure 18
0001
1000
0001
0000
,  // measure 19
1000
0001
1000
0000
,  // measure 20
1000
1000
1000
0000
,  // measure 21
0110
0010
0010
0000
,  // measure 22
0010
0100
0010
0000
,  // measure 23
0100
0010
0100
0000
,  // measure 24
0100
0100
0100
0000
,  // measure 25
0110
0100
0100
0000
,  // measure 26
0100
0100
0100
0000
,  // measure 27
0010
0100
0010
0000
,  // measure 28
0010
0010
0010
0000
,  // measure 29
1001
0000
0100
0000
,  // measure 30
0100
0100
0100
0000
,  // measure 31
1000
0000
0100
0000
,  // measure 32
0100
0100
0100
0000
,  // measure 33
0001
0000
0100
0000
,  // measure 34
0100
0100
0100
0000
,  // measure 35
0001
0000
0100
0000
,  // measure 36
0100
0010
0100
0000
,  // measure 37
0110
0010
0010
0000
,  // measure 38
0010
0010
0010
0000
,  // measure 39
0010
0100
0010
0000
,  // measure 40
0010
0010
0010
0000
,  // measure 41
0100
0100
0100
0000
,  // measure 42
0100
0010
0100
0000
,  // measure 43
1000
0001
1000
0000
,  // measure 44
0001
1000
0001
0000
,  // measure 45
1001
0000
0000
0000
;

//---------------dance-single - ----------------
#NOTES:
     dance-single:
     :
     Medium:
     6:
     0.375,0.325,0.239,0.000,0.000:
1000
0000
0001
0000
1000
0000
0010
0100
,
0000
0100
0000
0100
0000
0000
1001
0000
,
1000
0000
0010
0000
1000
0000
0100
0010
,
0000
0010
0000
0010
0000
0000
1001
0000
,
0101
0000
1000
0000
0001
0000
1000
0001
,
0100
0100
0100
1001
,
0101
0000
1000
0000
0001
0000
1000
0001
,
0100
0100
0100
1001
,
1100
0000
0001
0000
1000
0000
0001
1000
,
0100
0100
0100
1001
,
0001
1000
0010
0000
0001
1000
0001
1000
,
0000
0000
0000
1001
,
0110
0000
1000
0000
0001
0000
1000
0001
,
0100
0010
0100
0110
,
1000
0000
0010
0000
1000
0000
1000
0001
,
1000
1000
1000
1010
,
1100
0000
0001
0000
1000
0000
1000
0001
,
0100
0001
0100
0101
,
0010
0000
0010
0000
0010
0000
0100
0001
,
0010
0000
0100
0000
0001
1000
0001
1000
,
0010
0000
1000
0000
0100
0000
0001
1000
,
0100
0001
1000
1100
,
0001
0000
1000
0000
0010
0000
0010
0100
,
0010
0001
0100
0101
,
1000
0000
0001
0000
1000
0000
0001
0001
,
1000
0000
0001
0000
0100
0000
1000
1000
,
0001
0000
0100
0000
0001
0000
0001
0001
,
1000
0000
0100
1000
0001
1000
0001
0000
,
0011
0001
0001
0100
,
0001
1000
0001
0000
0001
0100
0001
0000
,
1001
0000
0100
0000
1000
0000
0010
1000
,
0010
0000
1000
0001
0010
0000
1001
0000
,
0100
0000
1000
0100
1000
0000
0100
0000
,
0010
0000
0100
0001
0010
0000
0100
0000
,
0010
0000
0100
0010
0100
0000
0001
0100
,
0001
1000
0010
0110
,
1001
0000
0100
0000
0001
0000
0100
0001
,
0010
0000
0100
0000
0010
0000
1000
0010
,
0001
0000
0010
0000
0001
0000
0010
0100
,
1000
0000
0100
0000
1000
0000
0100
1000
,
0010
0000
0100
0000
0010
0000
0100
0010
,
0100
0000
0010
0000
1000
0000
0001
1000
,
0001
0000
1000
0000
0001
0000
1000
0001
,
1000
0000
0001
1000
0001
0000
1000
0001
,
0010
0000
0000
0000
;

//---------------dance-single - ----------------
#NOTES:
     dance-single:
     :
     Hard:
     9:
     0.614,0.550,0.091,0.000,0.528:
1000
0010
0000
1000
0010
0000
0100
0000
0001
0100
0000
0001
0100
0000
0010
0000
,
1000
0100
1000
0001
0100
0010
1001
0000
,
1000
0010
0000
1000
0010
0000
0100
0000
0001
0100
0000
0001
0100
0000
0010
0000
,
1000
0100
0010
0100
0001
1000
0001
0100
,
0010
0100
0000
0010
0100
0000
0001
0000
0100
0010
0000
0100
0010
0000
0100
0000
,
0010
1000
0001
0100
0010
0100
0110
0000
,
0010
0100
0000
0010
0100
0000
0001
0000
0100
0010
0000
0100
0010
0000
1000
0000
,
0010
0100
0001
0100
0010
0100
0110
0000
,
0001
0100
0000
0001
0100
0000
0010
0000
0001
0100
0000
0001
0100
0000
0010
0000
,
0001
0100
0001
0100
0010
0100
0101
0000
,
0001
0100
0001
0000
1000
0010
1000
0000
0100
0010
0100
0000
1000
0001
1000
0001
,
0000
0000
0000
1001
,
1000
0010
0000
1000
0010
0000
1000
0000
0100
1000
0000
0100
1000
0000
0010
0000
,
1000
0100
1000
0001
1000
0100
1100
0000
,
0010
1000
0000
0010
1000
0000
0001
0000
1000
0100
0000
1000
0100
0000
0010
0000
,
1000
0001
0100
0010
1000
0100
1100
0000
,
0010
0100
0000
0010
0100
0000
0001
0000
0100
0010
0000
0100
0010
0000
0001
0000
,
1000
0001
0100
0001
1000
0010
1001
0000
,
1000
0100
0000
1000
0001
0000
0100
0000
0001
1000
0000
0001
0100
0000
0001
0000
,
0010
0001
0100
0001
0010
0100
0001
0100
,
0010
1000
0000
0000
1000
0100
0000
0000
0100
0010
0000
0000
0010
0001
0000
0000
,
0001
1000
0001
0100
0010
0100
0001
0100
,
0001
0100
0000
0000
0100
0010
0000
0000
0010
1000
0000
0000
1000
0001
0000
0000
,
1000
0001
1000
0100
0001
0010
0001
0100
,
0100
0001
0000
0000
0001
0100
0000
0000
0100
0010
0000
0000
0010
1000
0000
0000
,
1000
0010
1000
0100
0001
1000
0010
0100
,
1000
0010
0000
0000
0010
1000
0000
0000
1000
0001
0000
0000
0001
1000
0000
0010
,
1000
0001
1000
0100
0001
1000
0001
0100
,
0010
1000
0000
0000
1000
0010
0000
0000
0010
1000
0000
0000
1000
0010
0000
0000
,
0010
1000
0000
0000
1000
0100
0000
0000
1000
0010
0000
0000
0010
1000
0000
0000
,
1000
0001
0000
0000
0001
1000
0000
0000
1000
0001
0000
0000
0001
1000
0000
0000
,
1000
0010
0000
0000
0010
1000
0000
0000
1000
0010
0000
0000
0010
0100
0000
0000
,
0100
0001
0000
0000
0001
0010
0000
0000
0010
0001
0000
0000
0001
0100
0000
0000
,
0100
0001
0000
0000
0001
1000
0000
0000
1000
0001
0000
1000
0001
0000
0000
0000
,
0010
1000
0000
0010
1000
0000
0000
0000
1000
0100
0000
1000
0100
0000
0000
0000
,
1000
0001
1000
0000
0001
1000
0001
0000
0010
0000
1000
0000
0100
0000
0001
0000
,
0010
0001
0010
0100
0001
0100
0001
1000
,
0010
1000
0010
0100
0001
0100
1000
0010
,
1000
0100
1000
0100
1000
0001
1000
0001
,
0010
0100
1000
0100
0001
0100
0010
0001
,
0100
0001
0100
0010
1000
0001
1000
0100
,
1000
0010
1000
0100
0010
0100
0001
0010
,
1000
0001
0100
0010
1000
0001
1000
0100
,
1000
0010
1000
0000
0001
0100
0001
0000
1000
0001
1000
0000
0001
1000
0001
1000
,
0001
0000
0000
0000
;
