#TITLE:BURNING FOR YOU;
#SUBTITLE:;
#ARTIST:SHINY TOY GUNS;
#TITLETRANSLIT:;
#SUBTITLETRANSLIT:;
#ARTISTTRANSLIT:;
#CREDIT:;
#BANNER:BURNING FOR YOU.png.png;
#BACKGROUND:BURNING FOR YOU.bg.png;
#LYRICSPATH:;
#CDTITLE:;
#MUSIC:BURNING FOR YOU.mp3;
#OFFSET:-7.200;
#SAMPLESTART:66.760;
#SAMPLELENGTH:12.000;
#SELECTABLE:YES;
#BPMS:0.000=68.500,16.000=137.000;
#STOPS:;
#BGCHANGES:;

//---------------dance-single - ----------------
#NOTES:
     dance-single:
     :
     Easy:
     5:
     0.364,0.402,0.333,0.438,0.000:
2000
0100
0100
0100
,
3020
0100
0100
0100
,
2030
3001
0002
1003
,
0020
0130
0200
0010
,
0301
1001
0000
0010
,
1000
0001
0100
0001
,
0101
0101
0010
1000
,
0001
0100
0001
1000
,
1010
1010
0100
0001
,
1000
1000
0010
0100
,
0110
1001
0100
0001
,
1000
0010
0001
0100
,
1100
1100
0010
0100
,
0001
1000
0010
0100
,
1001
0110
0001
1000
,
0100
0001
1000
0010
,
0011
1100
0010
0100
,
0010
0010
1000
0001
,
0110
1100
0001
1000
,
0010
0100
0100
0010
,
0002
1000
0100
0100
,
0203
0000
0301
0101
,
2000
0001
0100
0100
,
3020
0000
1030
0101
,
2000
0001
0010
3010
,
0001
0010
0100
0000
,
1002
0103
0210
0301
,
2000
0100
0001
3010
,
1020
0130
0210
0301
,
0002
0203
0320
2030
,
3002
0010
1000
0103
,
0200
1000
0310
0101
,
0020
0100
0001
0031
,
0002
0010
1003
1010
,
0200
1000
0010
0310
,
0020
0100
0031
0101
,
0020
0100
1000
1030
,
2000
0100
3001
0101
,
1020
0000
0230
0000
,
0302
0000
1003
1000
,
0120
0000
0230
0000
,
0302
0000
1003
1000
,
0201
0000
0320
0000
,
2030
0000
3100
0101
,
1020
0130
2100
3010
,
0002
0010
0100
0103
,
0120
0031
1020
0130
,
0002
0010
0100
1003
,
2010
0100
0001
3001
,
1002
0103
2000
3010
;

//---------------dance-single - ----------------
#NOTES:
     dance-single:
     :
     Medium:
     7:
     0.477,0.475,0.333,0.257,0.000:
0200
0000
0310
0001
0002
0100
0203
0000
,
0320
0000
1030
0100
0002
1000
0103
0010
,
2000
0100
3100
0100
0002
0010
0103
0000
,
2000
0010
3100
0001
2000
0100
0100
0010
,
3010
0000
0101
0000
0010
1000
0010
1000
,
0100
0000
1000
0000
0000
0010
0000
0100
,
0001
0000
0011
0000
0100
0001
0100
0010
,
0000
1000
0000
0001
0000
1000
0000
0010
,
0100
0000
0101
0000
0010
1000
0010
1000
,
0100
0110
0000
0110
,
0101
0000
0010
0001
0010
0000
1000
0001
,
0100
0000
0010
1000
0000
0001
0000
0100
,
0010
0000
0101
0000
1000
0000
0010
0100
,
0001
0000
0101
0000
0010
0010
1000
0000
,
0101
0000
1010
0000
0100
0010
0001
1000
,
0010
0000
0001
0000
0100
0001
0000
0010
,
1000
0000
0110
0000
1000
0000
0001
1000
,
0100
0000
0010
1000
0000
0000
0010
0000
,
0101
0000
1100
0000
0010
0000
0100
0010
,
0100
0000
0001
1000
0000
0010
0000
0100
,
0001
0010
0001
0100
0001
0000
0001
1000
,
0020
0100
1030
1010
,
0100
1000
0100
0010
1000
0000
1000
0010
,
0002
0000
0010
0000
0103
0000
0101
0010
,
1000
0000
1000
0100
0001
0000
0001
0100
,
0010
0100
0001
1000
0010
0100
1001
0000
,
1020
0000
0130
0001
2000
0000
3100
0001
,
0010
0001
0100
0000
0010
0100
0101
0000
,
0020
0000
1030
0100
0002
0000
0013
0100
,
1000
1000
0001
0001
0100
0000
0110
0001
,
1000
0000
1010
0100
0001
0010
0001
0000
,
0200
0001
0301
0000
0010
1000
1010
0000
,
0001
0000
0102
0000
0013
1000
1000
0000
,
0010
0100
0002
0000
0013
1000
0101
0010
,
1000
0000
1001
0000
0100
0010
0010
0000
,
1000
0010
0100
0000
1100
0000
0101
0010
,
0001
0000
0200
0000
0301
0010
1000
0000
,
0002
0010
0013
0000
0010
0001
0101
0010
,
1000
0000
0001
0100
0001
0010
1000
0100
,
0001
1000
0001
0000
1000
0001
0101
0000
,
0020
0000
0100
0000
1000
1000
1030
0000
,
0100
0001
0100
0000
1010
0000
0101
0010
,
1000
0000
1001
0000
0010
1000
0100
1000
,
0020
0100
0130
0000
0001
0010
0001
0100
,
2000
0100
0100
0000
3010
0000
0101
0010
,
0002
0000
0010
0000
0103
1000
1010
0000
,
1100
0000
0010
0000
0001
0100
0001
0000
,
0010
1000
0010
0100
0001
1000
0010
0000
,
0100
0001
0100
0001
0020
0000
0031
0000
,
2000
0001
3100
0000
0002
1003
0100
1001
;

//---------------dance-single - ----------------
#NOTES:
     dance-single:
     :
     Hard:
     8:
     0.500,0.617,0.238,0.286,0.052: // measure 1
2000
0000
3100
0000
0010
1000
0010
0200
0000
0000
0310
0000
0001
0100
0001
0000
,  // measure 2
0020
0000
1030
0000
0100
0001
0100
0020
0000
0000
1030
0000
0100
1000
0100
1000
,  // measure 3
0010
0000
0100
0000
0101
0000
0010
2000
0000
0000
3100
0000
0001
0100
0001
0000
,  // measure 4
0020
0000
0130
0000
1000
0001
1000
0020
0000
0000
0100
0000
0100
0000
0130
0000
,  // measure 5
0100
0000
1010
0000
0100
0001
0100
0001
,  // measure 6
0000
0010
0000
1000
0000
0101
0000
0010
,  // measure 7
1000
0000
0110
0000
1000
0001
0100
0001
,  // measure 8
0000
0010
0000
1000
0000
0110
0000
1000
,  // measure 9
1001
0000
0101
0000
0010
0000
1000
0010
,  // measure 10
1000
0000
0100
1000
0000
0010
0000
0100
,  // measure 11
0001
0000
0011
0000
0100
0000
0001
0100
,  // measure 12
0001
0000
0010
1000
0000
0100
0000
0001
,  // measure 13
1001
0000
1100
0000
0010
0000
1000
0010
,  // measure 14
0100
0000
0001
1000
0000
0010
0000
0100
,  // measure 15
0001
0000
0011
0000
0100
0000
0001
1000
,  // measure 16
0001
0100
0010
1000
0000
0001
0000
0100
,  // measure 17
0110
0000
1010
0000
0100
0000
0001
0100
,  // measure 18
0010
0000
0010
1000
0000
0100
0000
1000
,  // measure 19
0001
0000
0101
0000
0010
0000
0001
0010
,  // measure 20
0100
0001
0100
0001
0000
0110
0000
1000
,  // measure 21
0010
1000
0100
1000
0010
1000
0100
1000
,  // measure 22
0001
1000
0001
0000
1000
0001
1000
0000
,  // measure 23
0010
0001
0100
0001
0010
0001
0100
0001
,  // measure 24
1000
0001
1000
0000
0001
1000
0001
1000
,  // measure 25
0010
0100
0001
0000
0001
1000
0010
0000
,  // measure 26
0010
1000
0010
0001
0100
0010
0100
0000
,  // measure 27
1020
1000
0000
1000
0000
1000
0030
1000
,  // measure 28
0002
0100
0000
0100
0003
0100
0100
0000
,  // measure 29
0210
0301
0201
0310
,  // measure 30
1000
0010
0100
0001
1000
0010
0100
0001
,  // measure 31
2000
0100
3001
0000
0002
0100
1003
0000
,  // measure 32
2000
0010
3001
0000
0100
0001
0110
1000
,  // measure 33
0020
0100
0130
0000
0002
0010
0013
0000
,  // measure 34
2000
0001
3001
0000
0010
0100
0001
0100
,  // measure 35
0002
0000
0013
0000
2000
0010
3010
0000
,  // measure 36
0210
0000
0301
0000
0001
1000
0001
0010
,  // measure 37
0200
0010
0310
0000
0002
0000
0103
0000
,  // measure 38
0020
1000
1030
0000
0100
0001
1000
0010
,  // measure 39
0200
0010
0310
0000
0001
0000
0101
0000
,  // measure 40
2010
0000
3100
0000
0001
0100
1000
0100
,  // measure 41
0020
0001
0031
0000
0200
0000
0301
0000
,  // measure 42
0020
0100
0130
0000
1000
0010
0100
0001
,  // measure 43
1000
0010
0100
0000
0001
1000
0010
0000
,  // measure 44
0100
0001
1000
0000
0010
0100
0001
1000
,  // measure 45
0010
0001
0010
0001
0100
0001
1000
0001
,  // measure 46
0010
1000
0010
1000
0100
1000
0001
1000
,  // measure 47
0020
1000
1000
0000
0130
0000
0101
0000
,  // measure 48
0020
0001
0001
0000
0031
0000
0101
0010
,  // measure 49
1000
0010
0100
0001
1000
0010
0100
0001
,  // measure 50
1000
0010
0100
0001
1000
0010
0100
1001
;
