#TITLE:BACK TO THE DANCE FLOOR;
#SUBTITLE:;
#ARTIST:DJ SIMON;
#TITLETRANSLIT:;
#SUBTITLETRANSLIT:;
#ARTISTTRANSLIT:;
#CREDIT:;
#BANNER:BACK TO THE DANCE FLOOR.png.png.png;
#BACKGROUND:BACK TO THE DANCE FLOOR.bg.png;
#LYRICSPATH:;
#CDTITLE:;
#MUSIC:BACK TO THE DANCE FLOOR.mp3;
#OFFSET:-9.180;
#SAMPLESTART:16.000;
#SAMPLELENGTH:12.000;
#SELECTABLE:YES;
#BPMS:0.000=126.040;
#STOPS:;
#BGCHANGES:;

//---------------dance-single - ----------------
#NOTES:
     dance-single:
     :
     Easy:
     3:
     0.227,0.203,0.137,0.160,0.000:
1000
0000
1000
0010
,
0001
0000
0001
0010
,
0100
0010
0010
0000
,
0100
0010
1001
0000
,
0020
0000
0130
0100
,
0002
0000
0103
0000
,
0001
0001
0001
0000
,
1000
0010
1000
1000
,
0120
0000
0130
0000
,
0020
0000
0031
0000
,
0100
0100
0010
0000
,
0100
0100
0100
0001
,
1020
0000
0130
0000
,
0001
0000
0100
0001
,
0120
0000
0130
0000
,
0001
0000
0100
0001
,
1002
0000
0013
0000
,
0100
0000
0100
0001
,
0100
0000
0010
0000
,
0100
0010
1001
0010
,
0020
0000
0130
0001
,
0200
0000
0310
0000
,
1000
0010
0001
0000
,
0010
0010
1000
0001
,
1002
0000
0103
0001
,
0200
0000
0310
0000
,
1000
1000
1000
0000
,
0001
0001
0010
0100
,
1002
0000
0103
0000
,
0001
0000
0010
0100
,
1002
0000
0103
0000
,
0001
0000
0010
1000
,
0120
0000
0130
0000
,
0001
0000
0100
0001
,
1000
1000
0010
1000
,
0010
0000
0100
0000
,
0010
0010
0001
0000
,
0100
0001
1001
0000
,
0010
0010
0100
0000
,
0001
1000
1001
0000
;

//---------------dance-single - ----------------
#NOTES:
     dance-single:
     :
     Medium:
     6:
     0.405,0.386,0.240,0.297,0.051:
1010
0000
0000
0000
0100
0000
0000
0000
0100
0000
0000
0001
0000
0000
0000
0000
,
0011
0000
0000
0000
0100
0000
0000
0000
0001
0000
0000
0100
0000
0000
0000
0000
,
0010
0000
0000
1000
0000
0000
0100
0000
0001
0000
0000
0100
0000
0000
0000
0000
,
0010
0100
0010
0000
0001
1000
0001
0000
1001
0000
0000
0101
0000
0000
0010
0000
,
0002
0000
0013
0000
0100
0010
0100
0000
,
2000
0000
3100
0000
0010
0010
0010
0000
,
0100
0100
0001
0000
0010
0000
1010
0000
,
0100
0100
0001
0000
1010
0000
0110
0000
,
0200
0000
1300
0000
0001
0010
0010
0000
,
0200
0000
0301
0000
0010
1000
0100
0000
,
0010
0100
0010
0000
1000
0000
0100
0000
,
0001
1000
0010
0000
0011
0000
1100
0000
,
2000
3001
0002
0103
,
0200
0000
0310
0000
1000
0010
1000
0000
,
0002
0013
0200
0310
,
2000
0000
3001
0000
1000
0001
0001
0000
,
0210
0310
0002
0103
,
0020
0000
1030
0000
0001
1000
0001
0000
,
1000
0010
0100
0000
0001
0100
0001
0000
,
0010
0001
0010
0000
1010
0000
0101
0000
,
0020
0000
0130
0000
0001
0100
0001
0000
,
0020
0000
1030
0000
0100
0001
0010
0000
,
1000
1000
1000
0000
0100
0000
0001
0000
,
0010
0010
0001
0000
0100
0000
1010
0000
,
0002
0000
0103
0000
0010
0001
1000
0000
,
0020
0000
1030
0000
0100
1000
0010
0000
,
0100
0001
0100
0000
0010
0000
0100
0000
,
0001
1000
0010
0000
0101
0000
1010
0000
,
0210
0301
0002
0013
,
0200
0000
0310
0000
1000
0010
1000
0100
,
0002
0013
0200
0310
,
2000
0000
3001
0000
0100
0001
0100
0001
,
1020
0130
0200
0301
,
0002
0000
0013
0000
0100
0010
0100
0000
,
0001
1000
0010
0000
0001
1000
0100
0000
,
0001
1000
0001
1000
1001
0000
0110
0000
,
1000
0010
1000
0000
0100
0000
1000
0000
,
0010
0000
0100
0000
0010
0000
0000
0000
1001
0000
0000
0100
0000
0000
0000
0000
,
0100
0001
0100
0000
0010
0000
1000
0000
,
0100
0000
0001
0000
0010
0000
0000
0000
0110
0000
0000
0100
0000
0000
0000
0000
;

//---------------dance-single - ----------------
#NOTES:
     dance-single:
     :
     Hard:
     7:
     0.515,0.476,0.229,0.297,0.063: // measure 1
0010
0000
1000
0000
0100
0000
0010
0000
0001
0000
1000
0001
0000
0000
0000
0000
,  // measure 2
0010
0000
0100
0000
0001
0000
1000
0000
0010
0000
0001
0100
0000
0000
0000
0000
,  // measure 3
0010
0000
1000
0010
0000
0000
0100
0000
0001
0000
0100
0001
0000
0000
1000
0000
,  // measure 4
0010
1000
0010
0000
0100
0001
0100
0000
0101
0000
0000
0011
0000
0000
1010
0000
,  // measure 5
0200
0000
0301
0010
0001
0100
0001
0010
,  // measure 6
2000
0000
3100
0001
0100
0010
0010
0000
,  // measure 7
1010
1000
1000
0100
1000
0100
0010
0100
,  // measure 8
0001
0001
0001
0100
0001
0010
1000
0010
,  // measure 9
0200
0000
0310
0001
0010
0100
0010
0001
,  // measure 10
2000
0000
3100
0001
0100
0010
1000
0000
,  // measure 11
0110
0100
0100
0001
1000
0010
0100
0001
,  // measure 12
0100
0000
0100
0000
0100
0000
0001
0000
1000
0000
0010
0100
0010
0000
0000
0000
,  // measure 13
0102
0000
0013
1000
0200
0000
0301
0010
,  // measure 14
2000
0000
3100
0001
0010
0001
0100
0000
,  // measure 15
0102
0000
0013
1000
0200
0000
1300
0010
,  // measure 16
0200
0000
0301
1000
0010
0100
0010
0000
,  // measure 17
1020
0000
0130
0001
0200
0000
0310
1000
,  // measure 18
0002
0000
0103
0010
1000
0001
0001
0100
,  // measure 19
0010
0001
0001
0100
0010
1000
1000
0100
,  // measure 20
0010
1000
0010
0100
1001
0000
0110
0000
,  // measure 21
0020
0000
0031
0100
0001
0010
0100
0010
,  // measure 22
2000
0000
3100
0001
0100
0010
0100
0000
,  // measure 23
0110
0100
0100
0001
1000
0010
0100
0001
,  // measure 24
1000
1000
1000
0100
0001
0100
1000
0010
,  // measure 25
0200
0000
0310
0001
0100
0001
0100
0010
,  // measure 26
2000
0000
3100
0010
1000
0010
0100
0000
,  // measure 27
1100
1000
1000
0100
1000
0010
0100
0010
,  // measure 28
0001
0000
0001
0000
0001
0000
0100
0000
0001
0000
1000
0001
1000
0000
0000
0000
,  // measure 29
0210
0000
0310
0001
0200
0000
0301
0010
,  // measure 30
2000
0000
3100
0001
0010
1000
0100
1000
,  // measure 31
0020
0000
0130
0001
2000
0000
3100
0010
,  // measure 32
2000
0000
3100
0010
0001
1000
0001
0100
,  // measure 33
0210
0000
0310
0001
0200
0000
0301
1000
,  // measure 34
0020
0000
1030
0100
0001
1000
0001
0100
,  // measure 35
0001
1000
0101
0000
1000
0001
0101
0000
,  // measure 36
0010
1000
0001
0100
0110
0000
1001
0000
,  // measure 37
0100
0010
0100
0000
1000
0000
0001
0000
,  // measure 38
0100
0000
0001
0000
0100
0000
0000
0000
0110
0000
0000
0100
0000
0000
0000
0000
,  // measure 39
1000
0010
1000
0000
0100
0000
1000
0000
,  // measure 40
0010
0000
0100
0000
0010
0000
0000
0000
1001
0000
0000
0100
0000
0000
0000
0000
;
