#TITLE:2 HEARTS;
#SUBTITLE:;
#ARTIST:KIRA;
#TITLETRANSLIT:;
#SUBTITLETRANSLIT:;
#ARTISTTRANSLIT:;
#CREDIT:;
#BANNER:2 HEARTS.png.png;
#BACKGROUND:2 HEARTS.bg.png;
#LYRICSPATH:;
#CDTITLE:;
#MUSIC:2 HEARTS.mp3;
#OFFSET:-7.460;
#SAMPLESTART:28.780;
#SAMPLELENGTH:12.000;
#SELECTABLE:YES;
#BPMS:0.000=135.050;
#STOPS:;
#BGCHANGES:;

//---------------dance-single - ----------------
#NOTES:
     dance-single:
     :
     Easy:
     4:
     0.280,0.392,0.278,0.289,0.000:
0020
0000
0030
0000
,
0200
0000
0300
0000
,
0020
0000
0030
0000
,
2000
0000
3000
0000
,
0100
0010
0000
0010
0000
0010
0000
0000
,
0000
0100
0000
0010
0000
0100
0000
0000
,
0000
0001
0000
0001
0000
0001
0000
0000
,
0000
1000
0000
0100
0000
1000
0000
0000
,
0000
0010
0000
0010
0000
0010
0000
0000
,
0000
0100
0000
0010
0000
0100
0000
0000
,
0000
0001
0000
0010
0000
0001
0000
0000
,
0000
0100
0000
0010
0000
0100
0010
0000
,
2002
3003
0100
0000
,
0010
0000
1000
0001
,
2020
3030
0202
0303
,
2020
3030
0100
0010
,
1020
0000
0130
0000
,
1000
0000
0001
0001
,
1020
0000
0130
0000
,
0002
0000
0103
0010
,
2002
3003
0100
0100
,
0010
0000
1000
0001
,
0202
0303
2020
3030
,
2002
3003
0100
0010
,
0102
0000
0103
0010
,
1000
0000
0010
0100
,
0002
0000
0103
0000
,
0020
0000
0130
1000
,
1001
0100
0100
0000
,
0010
1000
0010
0110
,
1001
0100
0001
0000
,
0010
0001
0010
0110
,
1010
0100
1000
0000
,
1000
0100
1000
1100
,
0101
0010
1000
0000
,
0100
1000
0010
0100
,
0001
0011
0011
0000
,
0100
0001
0100
0000
,
0010
0110
0110
0000
,
1000
0001
0100
0001
,
0000
1000
1010
0000
,
0100
0001
0010
1000
,
0000
0010
0011
0000
,
0001
1000
0010
0000
,
1001
0000
0000
0000
;

//---------------dance-single - ----------------
#NOTES:
     dance-single:
     :
     Medium:
     5:
     0.372,0.465,0.301,0.289,0.000:
0020
0100
0000
0130
,
2000
0100
0000
3100
,
0002
0010
0000
0013
,
0200
0010
0000
0310
,
1001
0010
0000
0010
0000
0010
0000
0010
,
0100
0100
0000
0100
0000
0100
0000
0100
,
0001
0001
0000
0001
0000
0001
0000
0001
,
1000
1000
0000
1000
0000
1000
0000
1001
,
0010
0010
0000
0010
0000
0010
0000
0010
,
0100
0100
0000
0100
0000
0100
0000
0100
,
1000
1000
0000
1000
0000
1000
0000
1000
,
0001
0001
0000
0001
0000
0001
0010
0000
,
1100
0000
0010
0000
0100
0001
0100
0000
,
0010
0000
1000
0000
0010
1000
0010
0000
,
0202
0000
0303
2020
0000
3030
0202
0000
,
0303
2020
0000
3030
0100
0000
0100
0000
,
0010
0000
0100
0000
0001
0010
0001
0000
,
0100
0000
0001
0000
0100
1000
0010
0000
,
2000
0000
3000
0002
0000
0003
0200
0000
,
0310
0000
0010
0000
0010
0100
0100
0000
,
0110
0000
1000
0000
0001
0100
0001
0000
,
0010
0000
1000
0000
0010
1000
0010
0000
,
0220
0000
0330
2002
0000
3003
0220
0000
,
0330
2002
0000
3003
0010
0000
0010
0000
,
0100
0000
0001
0000
1000
0010
0100
0000
,
0001
0000
1000
0000
0010
0001
0010
0000
,
0200
0000
0300
0002
0000
0003
0020
0000
,
0130
0000
1000
0000
0001
1000
0001
0000
,
1001
0101
0011
0000
,
0001
0000
0010
0000
0100
0010
0100
0000
,
1000
0000
0001
0000
0100
0000
0000
0010
,
0000
1000
0000
0000
0001
0000
0101
0000
,
0010
1010
0110
0000
,
1000
0000
0001
0000
0100
0001
0100
0000
,
0010
0000
1000
0000
0001
0000
0000
0100
,
0000
0010
0000
0000
1000
0000
0101
0000
,
0110
1001
1001
0000
,
0010
0000
1000
0000
0001
0100
1000
0000
,
0010
0000
0001
0000
0100
0000
0000
0010
,
0000
0100
0000
0000
0010
0000
0110
0000
,
0001
0011
0110
0000
,
0100
0000
0010
0000
1000
1000
0001
0000
,
0100
0000
0001
0000
0010
0000
0000
0100
,
0000
0010
0000
0000
1000
0000
1001
0000
,
0101
0000
0000
0000
;

//---------------dance-single - ----------------
#NOTES:
     dance-single:
     :
     Hard:
     7:
     0.503,0.514,0.434,0.490,0.000: // measure 1
1000
0200
0000
0010
0000
0010
0000
0310
,  // measure 2
0001
2000
0000
0010
0000
0010
0000
3010
,  // measure 3
0001
0002
0000
0100
0000
0100
0000
0103
,  // measure 4
0010
2000
0000
0100
0000
0100
0000
3100
,  // measure 5
0010
0001
1000
0100
0000
0100
0000
0100
,  // measure 6
0001
1000
0001
0010
0000
0010
0000
0010
,  // measure 7
0100
0001
1000
0100
0000
0001
0000
0100
,  // measure 8
0001
0010
0010
1000
0000
0100
0000
1000
,  // measure 9
0010
0100
0001
1000
0000
0010
0000
0110
,  // measure 10
1000
0100
1000
0100
0000
1000
0000
0010
,  // measure 11
0100
0001
0100
0001
0000
0010
0000
0100
,  // measure 12
0001
0100
0010
1000
0000
0100
0101
0000
,  // measure 13
2000
0000
0000
0020
3000
0000
0230
0000
,  // measure 14
0000
0302
0000
0000
0013
0000
0010
0000
,  // measure 15
0202
0000
0303
2020
0000
3030
0202
0000
,  // measure 16
0303
2020
0000
3030
1001
0000
1001
0000
,  // measure 17
0200
0000
0300
0020
0000
0030
2000
0000
,  // measure 18
3000
0002
0000
0003
0110
0000
1001
0000
,  // measure 19
2200
0000
3300
0202
0000
0303
0220
0000
,  // measure 20
0330
2002
0000
3003
0110
0000
0110
0000
,  // measure 21
1000
0010
1000
0100
0001
1000
0001
0100
,  // measure 22
0001
0010
0001
0100
1000
0001
1000
0100
,  // measure 23
2020
0000
3030
0202
0000
0303
2020
0000
,  // measure 24
3030
0220
0000
0330
1001
0000
1001
0000
,  // measure 25
0010
0100
0010
0001
0010
0100
0010
1000
,  // measure 26
0100
0001
1000
0001
0010
1000
0100
0000
,  // measure 27
2002
0000
3003
0220
0000
0330
2020
0000
,  // measure 28
3030
0202
0000
0303
0110
0000
0110
0000
,  // measure 29
1000
0010
1000
0100
0001
1000
0001
0100
,  // measure 30
0010
0010
1000
0000
1000
0000
0101
0000
,  // measure 31
0010
0001
0100
0001
0010
1000
0100
1000
,  // measure 32
0001
1000
0010
0000
0100
0000
0110
0000
,  // measure 33
0010
1000
0100
1000
0010
0001
0100
0001
,  // measure 34
1000
0001
1000
0000
0010
0000
0110
0000
,  // measure 35
1000
0010
0100
0010
0001
1000
0001
0010
,  // measure 36
0100
0001
0100
0000
0010
0100
1001
0000
,  // measure 37
0010
1000
1100
0000
0101
0000
0010
1000
,  // measure 38
0000
0100
0000
1000
0001
1000
0001
0000
,  // measure 39
0010
0100
1001
0000
0101
0000
0010
1000
,  // measure 40
0000
0001
0000
0100
0001
0010
0100
0000
,  // measure 41
0001
1000
0101
0000
1010
0000
0100
0010
,  // measure 42
0000
1000
0000
0001
0100
1000
0100
0000
,  // measure 43
0010
1000
0100
0000
0001
0000
1000
0010
,  // measure 44
0000
0100
0000
0001
1000
0010
0100
0000
,  // measure 45
1001
0000
0000
0000
;
