#VERSION:0.83;
#TITLE:Petal Falls;
#SUBTITLE:;
#ARTIST:Spire;
#TITLETRANSLIT:;
#SUBTITLETRANSLIT:;
#ARTISTTRANSLIT:;
#GENRE:;
#ORIGIN:;
#CREDIT:;
#BANNER:Petal Falls-bn.png;
#BACKGROUND:Petal Falls-bg.png;
#PREVIEWVID:;
#JACKET:Petal Falls-jacket.png;
#CDIMAGE:;
#DISCIMAGE:;
#LYRICSPATH:;
#CDTITLE:;
#MUSIC:Petal Falls.ogg;
#OFFSET:-0.054000;
#SAMPLESTART:44.369999;
#SAMPLELENGTH:14.500000;
#SELECTABLE:YES;
#BPMS:0.000=130.000;
#STOPS:;
#DELAYS:;
#WARPS:;
#TIMESIGNATURES:0.000=4=4;
#TICKCOUNTS:0.000=4;
#COMBOS:0.000=1;
#SPEEDS:0.000=1.000=0.000=0;
#SCROLLS:0.000=1.000;
#FAKES:;
#LABELS:0.000=Song Start;
#BGCHANGES:;
#KEYSOUNDS:;
#ATTACKS:
;

//---------------dance-single - ----------------
#NOTEDATA:;
#CHARTNAME:;
#STEPSTYPE:dance-single;
#DESCRIPTION:;
#CHARTSTYLE:;
#DIFFICULTY:Challenge;
#METER:7;
#RADARVALUES:0.288209,0.407128,0.009088,0.399858,0.004544,222.000000,221.000000,1.000000,44.000000,0.000000,0.000000,0.000000,0.000000,0.000000,0.288209,0.407128,0.009088,0.399858,0.004544,222.000000,221.000000,1.000000,44.000000,0.000000,0.000000,0.000000,0.000000,0.000000;
#CREDIT:;
#NOTES:
// measure 0
0000
0000
0000
0000
,  // measure 1
0000
0000
0000
0000
,  // measure 2
0000
0000
0000
0000
,  // measure 3
0000
0000
0000
0000
,  // measure 4
0000
0000
0000
0000
,  // measure 5
0000
0000
0000
0000
,  // measure 6
0000
0000
0000
0000
,  // measure 7
0000
0000
0000
0000
,  // measure 8
0002
0000
0000
0000
,  // measure 9
0200
0000
0000
0303
,  // measure 10
2000
0000
0000
0000
,  // measure 11
0020
0000
0000
3030
,  // measure 12
2000
0000
3002
0023
,  // measure 13
0000
0230
2300
0000
,  // measure 14
3010
0000
2000
0000
3200
0000
0000
0320
,  // measure 15
0000
0032
0000
0000
1003
0000
0010
0000
,  // measure 16
2000
0000
3200
0000
,  // measure 17
0302
0000
0023
0000
,  // measure 18
2030
0000
3200
0000
,  // measure 19
0320
0000
0032
0000
,  // measure 20
1003
0010
1000
0010
,  // measure 21
0100
0001
0100
0001
,  // measure 22
2002
0000
0000
3003
,  // measure 23
0001
0000
0100
0000
0001
0000
1000
0010
1000
0000
1000
0000
0001
0000
0001
0000
,  // measure 24
0010
0001
0010
0000
0100
1000
0000
1000
,  // measure 25
0001
0000
0100
0001
0100
0000
0010
1000
,  // measure 26
1000
0100
1000
0000
0010
0000
0100
0001
,  // measure 27
0000
0001
1000
0000
1000
0100
0001
0100
,  // measure 28
2000
0000
0000
0000
3001
0100
0020
1000
,  // measure 29
0000
1030
0010
0100
0001
0000
1000
0100
,  // measure 30
0100
1000
0010
0000
0100
0000
0001
0010
,  // measure 31
0000
0010
0100
0000
2000
0000
3200
0000
,  // measure 32
0320
0000
0000
0000
0030
0000
0001
1000
,  // measure 33
0100
0020
0031
0100
0010
2000
3020
0230
,  // measure 34
0302
2003
3100
0000
0010
0000
0001
0010
,  // measure 35
0000
0100
1000
0000
0001
0100
1000
0100
,  // measure 36
0002
0000
0000
0000
1003
0100
0020
0001
,  // measure 37
0030
0001
0010
0100
1000
0000
0010
0100
,  // measure 38
0100
0010
1000
0000
0001
0000
0100
0001
,  // measure 39
0000
0001
1000
0000
0200
0000
0320
0000
,  // measure 40
0130
0000
1000
0000
0100
0010
0001
0000
,  // measure 41
0100
0000
0010
1000
0001
0000
0100
0000
,  // measure 42
0001
0010
0100
0000
0010
0000
0001
0100
,  // measure 43
0000
1000
0010
0000
1000
0100
0010
0100
,  // measure 44
2000
0000
0000
0000
3001
0100
0020
1000
,  // measure 45
0000
1030
0010
0100
0001
0000
0010
0100
,  // measure 46
0010
0001
1000
0010
0200
0001
0000
0301
,  // measure 47
0100
0010
1000
0000
0100
0000
0010
0000
,  // measure 48
0001
0000
0100
0000
0001
0010
0100
0000
,  // measure 49
1000
0000
0010
0100
0001
0000
1000
0000
,  // measure 50
0100
0000
0010
0000
0001
0000
1000
0100
,  // measure 51
0000
0001
0010
0000
0001
0100
0010
0100
,  // measure 52
0002
0000
0000
0000
1003
0100
0020
0001
,  // measure 53
0000
0031
0010
0100
1000
0000
0010
0100
,  // measure 54
0010
1000
0001
0010
0200
1000
0000
1300
,  // measure 55
0100
0010
0001
0000
0100
0000
1000
0000
,  // measure 56
0010
0000
0000
0000
;
