#TITLE:Le Petit Prince;
#SUBTITLE:;
#ARTIST:cubesato + sweez + hsgn;
#TITLETRANSLIT:;
#SUBTITLETRANSLIT:;
#ARTISTTRANSLIT:;
#GENRE:;
#CREDIT:;
#BANNER:Le Petit Prince-bn.png;
#BACKGROUND:Le Petit Prince-bg.png;
#LYRICSPATH:;
#CDTITLE:cdtitle.png;
#MUSIC:Le Petit Prince.ogg;
#OFFSET:-0.051000;
#SAMPLESTART:38.459999;
#SAMPLELENGTH:19.000000;
#SELECTABLE:YES;
#DISPLAYBPM:100.000000;
#BPMS:0.000000=100.000000
,15.250000=50.000000
,15.500000=200.000000
,16.000000=100.000000
,26.000000=124.999992
,27.000000=100.000000
,30.000000=124.999992
,31.500000=149.253998
,32.000000=150.000000
,32.125000=100.000000
,32.750000=150.000000
,32.875000=100.000000
,40.000000=150.000000
,40.125000=100.000000
,40.750000=150.000000
,40.875000=100.000000
,42.000000=124.999992
,42.500000=100.000000
,47.500000=124.999992
,48.000000=150.000000
,48.125000=100.000000
,48.750000=150.000000
,48.875000=100.000000
,49.500000=200.000000
,49.750000=100.000000
,53.500000=200.000000
,53.750000=100.000000
,56.000000=150.000000
,56.125000=100.000000
,56.750000=150.000000
,56.875000=100.000000
,57.500000=200.000000
,57.750000=100.000000
,58.000000=124.999992
,58.500000=100.000000
,60.750000=200.000000
,61.250000=100.000000
,61.500000=200.000000
,61.750000=100.000000
,79.000000=200.000000
,80.000000=100.000000
,110.000000=200.000000
,111.000000=100.000000
;
#STOPS:26.000000=0.020000,
26.166666=0.020000,
26.333334=0.020000,
26.500000=0.020000,
26.666666=0.020000,
26.833334=0.020000,
30.000000=0.020000,
30.166666=0.020000,
30.333334=0.020000,
30.500000=0.020000,
30.666666=0.020000,
30.833334=0.020000,
31.000000=0.020000,
31.166666=0.020000,
31.333334=0.020000,
31.500000=0.033000,
31.666666=0.033000,
31.833334=0.033000,
32.000000=0.025000,
32.750000=0.025000,
40.000000=0.025000,
40.750000=0.025000,
42.000000=0.020000,
42.166668=0.020000,
42.333332=0.020000,
47.500000=0.020000,
47.666668=0.020000,
47.833332=0.020000,
48.000000=0.025000,
48.750000=0.025000,
49.500000=0.075000,
53.500000=0.075000,
56.000000=0.025000,
56.750000=0.025000,
57.500000=0.038000,
57.625000=0.038000,
58.000000=0.020000,
58.166668=0.020000,
58.333332=0.020000,
60.750000=0.075000,
61.000000=0.075000,
61.500000=0.075000,
69.000000=0.600000,
79.000000=0.150000,
79.500000=0.150000,
100.000000=0.600000,
110.000000=0.150000,
110.500000=0.150000
;
#BGCHANGES:;
#KEYSOUNDS:;
#ATTACKS:;

//---------------dance-single - ----------------
#NOTES:
     dance-single:
     :
     Hard:
     8:
     0.388150,0.490416,0.093691,0.916094,0.338330,261.000000,252.000000,9.000000,88.000000,22.000000,0.000000,0.388150,0.490416,0.093691,0.916094,0.338330,261.000000,252.000000,9.000000,88.000000,22.000000,0.000000:
// measure 0
0000
0000
0000
0000
,  // measure 1
0000
0000
0000
0000
,  // measure 2
0000
0000
0000
0000
,  // measure 3
0000
0000
0000
0000
,  // measure 4
1000
0100
1000
0100
0010
0000
0001
0000
0000
0000
1000
0000
1000
0000
0001
0010
,  // measure 5
0002
0000
0000
0000
0003
0000
0010
0000
0100
1000
0100
0000
1000
0000
0000
0000
,  // measure 6
0010
0100
0010
0100
0001
0000
1000
0000
0001
0010
0001
0010
0100
0000
0100
1000
,  // measure 7
0200
0000
0000
0000
1300
0000
0001
0000
1000
0010
1000
0010
0100
0001
0100
0001
,  // measure 8
2000
0000
3000
0100
0010
0000
0001
0000
0100
0000
0020
0000
0230
0000
0301
1000
,  // measure 9
0002
0000
0000
0000
0003
0000
1000
0000
0001
0010
0001
0010
0100
0000
2000
0000
,  // measure 10
3200
0000
0000
0000
0300
0000
2000
3000
0010
0000
0000
0000
0100
0000
0000
0000
0001
0000
1000
0000
0002
0000
0000
0000
0023
0000
0000
0000
0130
0000
1000
0000
,  // measure 11
0200
0000
0000
0000
0300
0000
0000
0000
1000
0010
1000
0010
0100
0000
0001
1000
,  // measure 12
0002
0000
0000
0000
0003
0000
0020
0030
0000
0000
0000
0000
0400
0000
0300
0000
0010
0000
0000
0000
0002
0000
0000
0000
0203
0000
0000
0000
0310
0000
1000
0000
,  // measure 13
0020
0000
0000
0000
0030
0000
4000
3000
0001
1000
0001
1000
0100
0000
0020
0000
,  // measure 14
0032
0003
0000
0022
0033
0000
4004
3003
0001
1000
0002
0000
0203
0000
0310
1000
,  // measure 15
004M
0000
0000
0000
000M
0000
0030
0000
000M
4000
0000
0000
340M
0000
0000
0300
000M
0000
4000
0000
000M
3000
0000
0000
001M
0000
0000
010M
0000
0000
100M
0000
0000
010M
0000
0000
002M
0000
0000
000M
0000
0000
000M
0000
0000
000M
0000
0000
,  // measure 16
103M
0000
0000
0000
0000
0000
0000
0000
0000
0000
0000
0000
0002
0000
0000
0003
0000
0000
0200
0000
0000
0300
0000
0000
0010
0000
0000
0000
0010
0000
1000
0000
0000
0000
0000
0000
1010
0000
0000
0000
0000
0000
1000
0000
0000
0001
0000
0000
,  // measure 17
1000
0000
0000
0000
0100
0000
0000
0000
0M20
0030
0000
0000
0002
0000
0003
0000
0002
0000
0003
0000
0000
0000
0000
0000
0001
0000
0000
0000
0000
0000
0000
0000
,  // measure 18
2000
0000
0000
3000
0000
0000
0020
0000
0000
0030
0000
0000
0100
0000
0000
0000
0100
0000
0001
0000
0000
0000
0000
0000
0101
0000
0000
0000
0000
0000
0010
0000
0000
1000
0000
0000
0010
0000
0000
0000
0000
0000
0000
0000
0000
0000
0100
0000
,  // measure 19
0002
0000
0000
0003
0000
0000
0002
0000
0000
0003
1000
0000
0100
0000
0000
0000
0000
0000
0002
0000
0000
0003
0000
0000
0200
0000
0000
0300
0000
0000
0010
0000
0000
0000
0000
0000
0002
0000
0000
0003
0000
0000
0002
0000
0000
0003
0000
0000
,  // measure 20
2000
0000
0000
3000
0000
0000
2000
0000
0000
3000
0000
0000
0000
0000
0000
0000
0010
0000
0100
0000
0000
0000
0000
0000
0210
0000
0000
0300
0000
0000
0010
0000
0000
1000
0000
0000
0010
0000
0000
0000
0000
0000
0000
0000
0000
0000
0000
0000
,  // measure 21
0200
0000
0000
0300
0000
0000
0001
0000
0000
0000
0000
0000
1000
0000
0000
0000
1000
0000
0200
0000
0000
0300
0000
0000
1200
0000
0000
0300
0000
0000
1000
0000
0000
0001
0000
0000
1000
0000
0000
0000
0000
0000
0000
0000
0000
0000
0000
0000
,  // measure 22
0001
0000
0000
0000
0000
0000
0010
0000
0000
0000
0000
0000
0100
0000
0000
0000
0100
0000
1000
0000
0000
0000
0000
0000
0001
0000
0000
0000
0000
0000
0100
0000
0000
0001
0000
0000
0100
0000
0000
0000
0000
0000
0000
0000
0000
0000
0000
0000
,  // measure 23
0010
0000
0100
0000
2000
3000
0100
0000
0002
0003
1000
0000
0200
0000
0000
0000
,  // measure 24
0320
0032
2003
3200
,  // measure 25
2300
3000
0000
0000
0000
0000
0000
0000
0020
0000
0000
0000
0000
0000
0000
0000
2030
0000
0000
0000
0000
0000
0000
0000
3002
0000
0000
0000
0000
0000
0000
0000
,  // measure 26
0203
0000
0000
0000
0000
0000
0010
0000
0000
0000
0000
0000
0310
0000
0000
0000
0000
0000
0000
0000
0000
1000
0000
0000
0001
0000
0000
0000
0000
0000
1000
0000
0000
0000
0100
0000
2000
0000
0000
3000
0000
0000
2000
0000
0000
3000
0010
0000
,  // measure 27
0100
0000
0200
0300
0020
0030
0100
0000
0002
0003
0002
0003
2000
3000
0002
0003
,  // measure 28
0000
0000
0000
0000
1000
0000
0100
0000
0000
0000
0000
0000
2100
0000
0000
3000
0000
0000
0001
0000
0000
0010
0000
0000
0001
0000
0000
0000
0000
0000
0010
0000
0000
0000
0000
0000
0200
0000
0000
0300
0000
0000
1000
0000
0000
0000
0000
0000
,  // measure 29
0001
0000
0000
0000
0100
0000
0002
0000
0000
0003
0000
0000
0201
0000
0000
0300
0000
0000
0010
0000
0000
1000
0000
0000
0010
0000
0000
0000
0000
0000
0000
0000
0000
0000
0000
0000
1000
0000
0000
0000
0000
0000
0100
0000
0000
0000
0000
0000
,  // measure 30
1000
0000
0001
1000
0000
0000
1010
0000
0000
0000
0000
0000
0001
0000
0000
0100
0000
0000
0001
0000
0000
1000
0000
0000
,  // measure 31
0100
0000
0020
0030
0002
0003
0000
0000
2000
0000
0000
0000
3020
0000
0000
0000
,  // measure 32
0230
0000
0000
0000
0000
0000
0000
0000
0302
0000
0000
0000
0000
0000
0000
0000
2003
3000
0000
0000
0000
0000
M000
0000
0000
0000
0000
0000
0000
0000
0000
0000
,  // measure 33
0002
0003
0000
0000
0000
0000
000M
0000
2000
0000
0000
0000
0000
0000
0000
0000
3002
0000
0000
0000
0000
0000
0000
0000
0023
0000
0000
0000
0000
0000
0000
0000
,  // measure 34
0230
0000
0000
0000
0000
0000
0000
0000
2300
0000
0000
0000
0000
0000
0000
0000
3020
0030
0000
0000
0000
0000
00M0
0000
0000
0000
0000
0000
0000
0000
0000
0000
,  // measure 35
0000
0000
0100
0001
0200
0000
0302
0000
,  // measure 36
2003
0000
0000
0000
0000
0000
0000
0000
3200
0000
0000
0000
0000
0000
0000
0000
2300
3000
0000
0000
0000
0000
M000
0000
0000
0000
0000
0000
0000
0000
0000
0000
,  // measure 37
0002
0003
0000
0000
0000
0000
000M
0000
0000
0000
0000
0000
0000
0000
0000
0000
0200
0300
0000
0000
0000
0000
0M00
0000
0000
0000
0000
0000
0000
0000
0000
0000
;

//---------------dance-single - ----------------
#NOTES:
     dance-single:
     :
     Challenge:
     9:
     0.463996,0.655938,0.114512,0.864043,0.525713,312.000000,301.000000,11.000000,83.000000,25.000000,0.000000,0.463996,0.655938,0.114512,0.864043,0.525713,312.000000,301.000000,11.000000,83.000000,25.000000,0.000000:
// measure 0
0000
0000
0000
0000
,  // measure 1
0000
0000
0000
0000
,  // measure 2
0000
0000
0000
0000
,  // measure 3
0000
0000
0000
0000
,  // measure 4
1000
0100
1000
0100
0010
0001
0010
0100
1000
0000
0001
0000
0001
0000
0100
0001
,  // measure 5
0200
0000
0000
0000
0000
0000
0000
0000
0000
0000
0000
0000
0300
0000
0000
0000
0000
0000
0010
0000
0000
0000
0000
0000
1000
0000
0000
0001
0000
0000
1000
0000
0000
0001
0000
0000
0010
0000
0000
0000
0000
0000
0000
0000
0000
0000
0001
0000
,  // measure 6
0100
0000
0000
0001
0000
0000
0100
0000
0000
0010
0000
0000
1000
0000
0000
0001
0000
0000
0010
0000
0000
0100
0000
0000
1000
0000
0001
0000
1000
0000
0001
0000
1000
0000
0001
0000
1000
0000
0000
0000
0000
0000
0010
0000
0000
1000
0000
0000
,  // measure 7
0040
0000
0000
0000
0000
0000
0130
0000
0000
0001
0000
0000
1000
0100
1000
0100
1000
0100
1000
0001
1000
0001
1000
0001
,  // measure 8
2000
3000
0000
0000
0000
0000
0020
0030
0200
0300
0000
0000
0001
0000
0000
0000
1000
0000
0000
0000
0200
0000
0300
0000
1000
0000
0000
0000
0001
0000
1000
0000
,  // measure 9
0002
0000
0000
0000
0003
0000
0100
0000
0001
0010
0001
0010
0100
0000
2000
3000
,  // measure 10
0002
0000
0000
0000
0000
0000
0003
0000
0000
0000
0000
0000
0000
0000
0000
0000
0000
0000
0000
0000
0000
0000
0000
0000
0000
0000
0000
0000
0000
0000
0000
0000
0000
0000
0000
0000
2000
0000
0000
0000
0000
0000
3000
0000
0000
0000
0000
0000
0010
0000
0000
0000
0000
0000
0000
0000
0000
0000
0000
0000
0000
0000
0000
0000
0000
0000
0000
0000
0000
0000
0000
0000
0100
0000
0000
0000
0000
0000
0000
0000
0000
0000
0000
0000
0000
0000
0000
0000
0000
0000
0000
0000
0000
0000
0000
0000
0002
0000
0000
0000
0000
0000
0003
0000
1000
0000
0000
0000
0000
0000
0000
0000
0001
0000
0000
0000
0000
0000
0000
0000
2000
0000
0000
0000
0000
0000
0000
0000
0000
0000
0000
0000
3000
0000
0000
0000
0000
0000
0000
0000
0000
0000
0000
0000
0100
0000
0000
0000
0000
0000
0000
0000
0000
0000
0000
0000
0000
0000
0000
0000
0000
0000
0000
0000
0000
0000
0000
0000
0010
0000
0000
0000
0000
0000
0000
0000
0000
0000
0000
0000
0001
0000
0000
0000
0000
0000
0000
0000
0000
0000
0000
0000
,  // measure 11
0040
0000
0000
0000
0000
0000
0000
0000
0000
0000
0000
0000
0030
0000
0000
0000
0000
0000
0000
0000
0000
0000
0000
0000
0001
0000
0000
0100
0000
0000
0001
0000
0000
0100
0000
0000
0010
0000
0000
0000
0000
0000
1000
0000
0001
0000
1000
0000
,  // measure 12
0002
0003
0000
0000
0000
0000
0020
0030
0000
0000
0000
0000
0400
0000
0300
0000
1000
0000
0000
0000
0200
0000
0300
0000
0010
0000
0000
0000
0001
0000
1000
0000
,  // measure 13
0004
0000
0000
0000
0003
0000
4000
3000
0010
1000
0010
1000
0001
0000
0200
0300
,  // measure 14
0020
0000
0000
0000
0000
0000
0030
0000
0000
0000
0000
0000
0000
0000
0000
0000
0000
0000
0000
0000
0000
0000
0000
0000
0000
0000
0000
0000
0000
0000
0000
0000
0000
0000
0000
0000
2020
0000
0000
0000
0000
0000
3030
0000
0000
0000
0000
0000
0000
0000
0000
0000
0000
0000
0000
0000
0000
0000
0000
0000
0000
0000
0000
0000
0000
0000
0000
0000
0000
0000
0000
0000
0404
0000
0000
0000
0000
0000
0000
0000
0000
0000
0000
0000
0303
0000
0000
0000
0000
0000
0000
0000
0000
0000
0000
0000
0001
0000
0000
0000
0000
0000
0000
0000
1000
0000
0000
0000
0000
0000
0000
0000
0001
0000
0000
0000
0000
0000
0000
0000
2000
0000
0000
0000
0000
0000
0000
0000
0000
0000
0000
0000
3000
0000
0000
0000
0000
0000
0000
0000
0000
0000
0000
0000
0100
0000
0000
0000
0000
0000
0000
0000
0000
0000
0000
0000
0000
0000
0000
0000
0000
0000
0000
0000
0000
0000
0000
0000
0010
0000
0000
0000
0000
0000
0000
0000
0000
0000
0000
0000
0001
0000
0000
0000
0000
0000
0000
0000
0000
0000
0000
0000
,  // measure 15
0M40
0000
0000
0M00
0000
0000
0M30
0000
0000
0M04
0000
0000
4M03
0000
0000
3M00
0000
0000
0M04
0000
0000
0M03
0000
0000
1M00
0000
0M00
0001
0M00
0000
0M10
0000
0M00
0001
0M00
0000
2M00
0000
0M00
0000
0M00
0000
0M00
0000
0M00
0000
0M00
0000
,  // measure 16
3M02
0000
0000
0000
0000
0000
0003
0000
0000
0000
0000
0000
0000
0000
0000
0000
0000
0000
0000
0000
0000
0000
0000
0000
0100
0000
0000
0000
0000
0000
0000
0000
0000
0000
0000
0000
0000
0000
0000
0000
0000
0000
0000
0000
0000
0000
0000
0000
0020
0000
0000
0000
0000
0000
0030
0000
0000
0000
0000
0000
0000
0000
0000
0000
0000
0000
0000
0000
0000
0000
0000
0000
0010
0000
0000
0000
0000
0000
0000
0000
0000
0000
0000
0000
0000
0000
0000
0000
0000
0000
0000
0000
0000
0000
0000
0000
2000
0000
0000
0000
0000
0000
3000
0000
0000
0000
0000
0000
0000
0000
0000
0000
1000
0000
0000
0000
0000
0000
0000
0000
0100
0000
0000
0000
0000
0000
0000
0000
0000
0000
0000
0000
0000
0000
0000
0000
0000
0000
0000
0000
0000
0000
0000
0000
1200
0000
0000
0000
0000
0000
0300
0000
0000
0000
0000
0000
0000
0000
0000
0000
0000
0000
0000
0000
0000
0000
0000
0000
1000
0000
0000
0000
0000
0000
0000
0000
0000
0000
0000
0000
0010
0000
0000
0000
0000
0000
1000
0000
0000
0000
0000
0000
,  // measure 17
0020
0000
0000
0000
0000
0000
0030
0000
0000
0000
0000
0000
0000
0000
0000
0000
0000
0000
0000
0000
0000
0000
0000
0000
0100
0000
0000
0000
0000
0000
0000
0000
0000
0000
0000
0000
0000
0000
0000
0000
0000
0000
0000
0000
0000
0000
0000
0000
M002
0000
0000
0000
0000
0000
0003
0000
0000
0000
0000
0000
0000
0000
0000
0000
1000
0000
0000
0000
0000
0000
0000
0000
0001
0000
0000
0000
0000
0000
0000
0000
0000
0000
0000
0000
0000
0000
0000
0000
0000
0000
0000
0000
0000
0000
0000
0000
0011
0000
0000
0000
0000
0000
0000
0000
0000
0000
0000
0000
0000
0000
0000
0000
0000
0000
0000
0000
0000
0000
0000
0000
0000
0000
0000
0000
0000
0000
0000
0000
0000
0000
0000
0000
0000
0000
0000
0000
0000
0000
0000
0000
0000
0000
0000
0000
0002
0000
0000
0000
0000
0000
0003
0000
0000
0000
0000
0000
0000
0000
0000
0000
0000
0000
0000
0000
0000
0000
0000
0000
0010
0000
0000
0000
0000
0000
0000
0000
0000
0000
0000
0000
0000
0000
0000
0000
0000
0000
0000
0000
0000
0000
0000
0000
,  // measure 18
0200
0000
0000
0000
0000
0000
0300
0000
0000
0000
0000
0000
0000
0000
0000
0000
0000
0000
0000
0000
0000
0000
0000
0000
0100
0000
0000
0000
0000
0000
0000
0000
0000
0000
0000
0000
0000
0000
0000
0000
0000
0000
0000
0000
0000
0000
0000
0000
2000
0000
0000
0000
0000
0000
3000
0000
0000
0000
0000
0000
0000
0000
0000
0000
1000
0000
0000
0000
0000
0000
0000
0000
0001
0000
0000
0000
0000
0000
0000
0000
0000
0000
0000
0000
0000
0000
0000
0000
0000
0000
0000
0000
0000
0000
0000
0000
0201
0000
0000
0000
0000
0000
0300
0000
0000
0000
0000
0000
0000
0000
0000
0000
0000
0000
0000
0000
0000
0000
0000
0000
0010
0000
0000
0000
0000
0000
0000
0000
0000
0000
0000
0000
1000
0000
0000
0000
0000
0000
0010
0000
0000
0000
0000
0000
2000
0000
0000
0000
0000
0000
3000
0000
0000
0000
0000
0000
0000
0000
0000
0000
0000
0000
0000
0000
0000
0000
0000
0000
0100
0000
0000
0000
0000
0000
0000
0000
0000
0000
0000
0000
0000
0000
0000
0000
0100
0000
0000
0000
0000
0000
0000
0000
,  // measure 19
0010
0000
0000
0000
0000
0000
0000
0000
0000
0000
0000
0000
0000
0000
0000
0000
0000
0000
0000
0000
0000
0000
0000
0000
0010
0000
0000
0000
0000
0000
0000
0000
0000
0000
0000
0000
0000
0000
0000
0000
0010
0000
0000
0000
0000
0000
0000
0000
0001
0000
0000
0000
0000
0000
0000
0000
0000
0000
0000
0000
0000
0000
0000
0000
0001
0000
0000
0000
0000
0000
0000
0000
1000
0000
0000
0000
0000
0000
0000
0000
0000
0000
0000
0000
0000
0000
0000
0000
0000
0000
0000
0000
0000
0000
0000
0000
0010
0000
0000
0000
0000
0000
0000
0000
0000
0000
0000
0000
0000
0000
0000
0000
0010
0000
0000
0000
0000
0000
0000
0000
0100
0000
0000
0000
0000
0000
0000
0000
0000
0000
0000
0000
0000
0000
0000
0000
0000
0000
0000
0000
0000
0000
0000
0000
0020
0000
0000
0000
0000
0000
0030
0000
0000
0000
0000
0000
0000
0000
0000
0000
0000
0000
0000
0000
0000
0000
0000
0000
0020
0000
0000
0000
0000
0000
0030
0000
0000
0000
0000
0000
0000
0000
0000
0000
0000
0000
0000
0000
0000
0000
0000
0000
,  // measure 20
1000
0000
0000
0000
0000
0000
0000
0000
0000
0000
0000
0000
0000
0000
0000
0000
0000
0000
0000
0000
0000
0000
0000
0000
1000
0000
0000
0000
0000
0000
0000
0000
0000
0000
0000
0000
0000
0000
0000
0000
0000
0000
0000
0000
0000
0000
0000
0000
0001
0000
0000
0000
0000
0000
0000
0000
0000
0000
0000
0000
0000
0000
0000
0000
0001
0000
0000
0000
0000
0000
0000
0000
0200
0000
0000
0000
0000
0000
0300
0000
0000
0000
0000
0000
0000
0000
0000
0000
0000
0000
0000
0000
0000
0000
0000
0000
0101
0000
0000
0000
0000
0000
0000
0000
0000
0000
0000
0000
0000
0000
0000
0000
0000
0000
0000
0000
0000
0000
0000
0000
0001
0000
0000
0000
0000
0000
0000
0000
0000
0000
0000
0000
1000
0000
0000
0000
0000
0000
0010
0000
0000
0000
0000
0000
1000
0000
0000
0000
0000
0000
0000
0000
0000
0000
0000
0000
0000
0000
0000
0000
0000
0000
0000
0000
0000
0000
0000
0000
0100
0000
0000
0000
0000
0000
0000
0000
0000
0000
0000
0000
0000
0000
0000
0000
0000
0000
0000
0000
0000
0000
0000
0000
,  // measure 21
0020
0000
0000
0000
0000
0000
0030
0000
0000
0000
0000
0000
0000
0000
0000
0000
0000
0000
0000
0000
0000
0000
0000
0000
0100
0000
0000
0000
0000
0000
0000
0000
0000
0000
0000
0000
0000
0000
0000
0000
0000
0000
0000
0000
0000
0000
0000
0000
2000
0000
0000
0000
0000
0000
3000
0000
0000
0000
0000
0000
0000
0000
0000
0000
1000
0000
0000
0000
0000
0000
0000
0000
0001
0000
0000
0000
0000
0000
0000
0000
0000
0000
0000
0000
0000
0000
0000
0000
0000
0000
0000
0000
0000
0000
0000
0000
0201
0000
0000
0000
0000
0000
0300
0000
0000
0000
0000
0000
0000
0000
0000
0000
0000
0000
0000
0000
0000
0000
0000
0000
0010
0000
0000
0000
0000
0000
0000
0000
0000
0000
0000
0000
0100
0000
0000
0000
0000
0000
0010
0000
0000
0000
0000
0000
0200
0000
0000
0000
0000
0000
0300
0000
0000
0000
0000
0000
0000
0000
0000
0000
0000
0000
0000
0000
0000
0000
0000
0000
0001
0000
0000
0000
0000
0000
0000
0000
0000
0000
0000
0000
0000
0000
0000
0000
0000
0000
0000
0000
0000
0000
0000
0000
,  // measure 22
0010
0000
0000
0000
0000
0000
0000
0000
0000
0000
0000
0000
0000
0000
0000
0000
0000
0000
0000
0000
0000
0000
0000
0000
1000
0000
0000
0000
0000
0000
0000
0000
0000
0000
0000
0000
0000
0000
0000
0000
0000
0000
0000
0000
0000
0000
0000
0000
0010
0000
0000
0000
0000
0000
0000
0000
0000
0000
0000
0000
0000
0000
0000
0000
0010
0000
0000
0000
0000
0000
0000
0000
0001
0000
0000
0000
0000
0000
0000
0000
0000
0000
0000
0000
0000
0000
0000
0000
0000
0000
0000
0000
0000
0000
0000
0000
1000
0000
0000
0000
0000
0000
0000
0000
0000
0000
0000
0000
0000
0000
0000
0000
0000
0000
0000
0000
0000
0000
0000
0000
0010
0000
0000
0000
0000
0000
0000
0000
0000
0000
0000
0000
0100
0000
0000
0000
0000
0000
0001
0000
0000
0000
0000
0000
0100
0000
0000
0000
0000
0000
0000
0000
0000
0000
0000
0000
0000
0000
0000
0000
0000
0000
0000
0000
0000
0000
0000
0000
1000
0000
0000
0000
0000
0000
0000
0000
0000
0000
0000
0000
0000
0000
0000
0000
0000
0000
0000
0000
0000
0000
0000
0000
,  // measure 23
0100
0000
0000
0010
0000
0000
0100
0000
0000
0010
0000
0000
1000
0000
1000
0001
0000
0000
0020
0000
0000
0000
0000
0000
,  // measure 24
0230
2300
3002
0203
,  // measure 25
M320
0030
0000
0000
0000
0000
0000
0000
0020
0000
0000
0000
0000
0000
0000
0000
0032
0000
0000
0000
0000
0000
0000
0000
2003
0000
0000
0000
0000
0000
0000
0000
,  // measure 26
3020
0000
0000
0000
0000
0000
0030
0000
0000
0000
0000
0000
0000
0000
0000
0000
0010
0000
0000
0000
0000
0000
0000
0000
0100
0000
0000
0000
0000
0000
0000
0000
0000
0000
0000
0000
0000
0000
0000
0000
0000
0000
0000
0000
0000
0000
0000
0000
0201
0000
0000
0000
0000
0000
0300
0000
0000
0000
0000
0000
0000
0000
0000
0000
0000
0000
0000
0000
0000
0000
0000
0000
0001
0000
0000
0000
0000
0000
0000
0000
0000
0000
0000
0000
1000
0000
0000
0000
0000
0000
0001
0000
0000
0000
0000
0000
2000
0000
0000
0000
0000
0000
3000
0000
0000
0000
0000
0000
0000
0000
0000
0000
0000
0000
0000
0000
0000
0000
0000
0000
0100
0000
0000
0000
0000
0000
0000
0000
0000
0000
0000
0000
0000
0000
0000
0000
0100
0000
0000
0000
0000
0000
0000
0000
0010
0000
0000
0000
0000
0000
0000
0000
0000
0000
0000
0000
0000
0000
0000
0000
0000
0000
0000
0000
0000
0000
0000
0000
0010
0000
0000
0000
0000
0000
0000
0000
0000
0000
0000
0000
0000
0000
0000
0000
0001
0000
0000
0000
0000
0000
0000
0000
,  // measure 27
1000
0000
0000
0000
0000
0000
0000
0000
0000
0000
0000
0000
0000
0000
0000
0000
0001
0000
0000
0000
0000
0000
0000
0000
0100
0000
0000
0000
0000
0000
0000
0000
0000
0000
0000
0000
0000
0000
0000
0000
0000
0000
0000
0000
0000
0000
0000
0000
0100
0000
0000
0000
0000
0000
0000
0000
0000
0000
0000
0000
0000
0000
0000
0000
0001
0000
0000
0000
0000
0000
0000
0000
0010
0000
0000
0000
0000
0000
0000
0000
0000
0000
0000
0000
0000
0000
0000
0000
0000
0000
0000
0000
0000
0000
0000
0000
0200
0000
0000
0000
0000
0000
0300
0000
0000
0000
0000
0000
0000
0000
0000
0000
0000
0000
0000
0000
0000
0000
0000
0000
0200
0000
0000
0000
0000
0000
0300
0000
0000
0000
0000
0000
0000
0000
0000
0000
0000
0000
0000
0000
0000
0000
0000
0000
1000
0000
0000
0000
0000
0000
0000
0000
0000
0000
0000
0000
0000
0000
0000
0000
0000
0000
0000
0000
0000
0000
0000
0000
0010
0000
0000
0000
0000
0000
0000
0000
0000
0000
0000
0000
0000
0000
0000
0000
0000
0000
0000
0000
0000
0000
0000
0000
,  // measure 28
1000
0000
0000
0000
0000
0000
0000
0000
0000
0000
0000
0000
0000
0000
0000
0000
1000
0000
0000
0000
0000
0000
0000
0000
0200
0000
0000
0000
0000
0000
0300
0000
0000
0000
0000
0000
0000
0000
0000
0000
0000
0000
0000
0000
0000
0000
0000
0000
1100
0000
0000
0000
0000
0000
0000
0000
0000
0000
0000
0000
0000
0000
0000
0000
0000
0000
0000
0000
0000
0000
0000
0000
0001
0000
0000
0000
0000
0000
0000
0000
0000
0000
0000
0000
0010
0000
0000
0000
0000
0000
0100
0000
0000
0000
0000
0000
0010
0000
0000
0000
0000
0000
0000
0000
0000
0000
0000
0000
0000
0000
0000
0000
0000
0000
0000
0000
0000
0000
0000
0000
0100
0000
0000
0000
0000
0000
0000
0000
0000
0000
0000
0000
0000
0000
0000
0000
0000
0000
0000
0000
0000
0000
0000
0000
1000
0000
0000
0000
0000
0000
0000
0000
0000
0000
0000
0000
0000
0000
0000
0000
0000
0000
0000
0000
0000
0000
0000
0000
0001
0000
0000
0000
0000
0000
0000
0000
0000
0000
0000
0000
0000
0000
0000
0000
0000
0000
0000
0000
0000
0000
0000
0000
,  // measure 29
0200
0000
0000
0000
0000
0000
0300
0000
0000
0000
0000
0000
0000
0000
0000
0000
0100
0000
0000
0000
0000
0000
0000
0000
0010
0000
0000
0000
0000
0000
0000
0000
0000
0000
0000
0000
0000
0000
0000
0000
0000
0000
0000
0000
0000
0000
0000
0000
0210
0000
0000
0000
0000
0000
0300
0000
0000
0000
0000
0000
0000
0000
0000
0000
0000
0000
0000
0000
0000
0000
0000
0000
0010
0000
0000
0000
0000
0000
0000
0000
0000
0000
0000
0000
1000
0000
0000
0000
0000
0000
0001
0000
0000
0000
0000
0000
2000
0000
0000
0000
0000
0000
3000
0000
0000
0000
0000
0000
0000
0000
0000
0000
0000
0000
0000
0000
0000
0000
0000
0000
0100
0000
0000
0000
0000
0000
0000
0000
0000
0000
0000
0000
0000
0000
0000
0000
0000
0000
0000
0000
0000
0000
0000
0000
0001
0000
0000
0000
0000
0000
0000
0000
0000
0000
0000
0000
0000
0000
0000
0000
0000
0000
0000
0000
0000
0000
0000
0000
0100
0000
0000
0000
0000
0000
0000
0000
0000
0000
0000
0000
0000
0000
0000
0000
0000
0000
0000
0000
0000
0000
0000
0000
,  // measure 30
1000
0000
0000
0000
0000
0000
0000
0000
0000
0000
0000
0000
0000
0000
0000
0000
1000
0000
0000
0000
0000
0000
0000
0000
0010
0000
0000
0000
0000
0000
0000
0000
0000
0000
0000
0000
0000
0000
0000
0000
0000
0000
0000
0000
0000
0000
0000
0000
1010
0000
0000
0000
0000
0000
0000
0000
0000
0000
0000
0000
0000
0000
0000
0000
0000
0000
0000
0000
0000
0000
0000
0000
1000
0000
0000
0000
0000
0000
0000
0000
0000
0000
0000
0000
0000
0000
0000
0000
0000
0000
0000
0000
0000
0000
0000
0000
0010
0000
0000
0000
0000
0000
0000
0000
0000
0000
0000
0000
0000
0000
0000
0000
0000
0000
0000
0000
0000
0000
0000
0000
0001
0000
0000
0000
0000
0000
0000
0000
0000
0000
0000
0000
0000
0000
0000
0000
0000
0000
0000
0000
0000
0000
0000
0000
0010
0000
0000
0000
0000
0000
0000
0000
0000
0000
0000
0000
0000
0000
0000
0000
0000
0000
0000
0000
0000
0000
0000
0000
0200
0000
0000
0000
0000
0000
0300
0000
0000
0000
0000
0000
0000
0000
0000
0000
0000
0000
0000
0000
0000
0000
0000
0000
,  // measure 31
0002
0003
0000
0000
0100
0000
0000
0000
0010
0000
0000
0000
0000
0000
0000
0000
2000
0000
0000
0000
0000
0000
0000
0000
3200
0000
0000
0000
0000
0000
0000
0000
,  // measure 32
0320
0000
0000
0000
0000
0000
0000
0000
0032
0000
0000
0000
0000
0000
0000
0000
0203
0300
0000
0000
0000
0000
0200
0300
0000
0000
0000
0000
0000
0000
0000
0000
,  // measure 33
0020
0030
0000
0000
0000
0000
0020
0030
2000
0000
0000
0000
0000
0000
0000
0000
3002
0000
0000
0000
0000
0000
0000
0000
0023
0000
0000
0000
0000
0000
0000
0000
,  // measure 34
0230
0000
0000
0000
0000
0000
0000
0000
2300
0000
0000
0000
0000
0000
0000
0000
3002
0003
0000
0000
0000
0000
0002
0003
0000
0000
0000
0000
0000
0000
0000
0000
,  // measure 35
0000
0001
1000
0100
2000
0000
3020
0000
,  // measure 36
0230
0000
0000
0000
0000
0000
0000
0000
0302
0000
0000
0000
0000
0000
0000
0000
2003
3000
0000
0000
0000
0000
2000
3000
0000
0000
0000
0000
0000
0000
0000
0000
,  // measure 37
0002
0003
0000
0000
0000
0000
0002
0003
0000
0000
0000
0000
0000
0000
0000
0000
0020
0030
0000
0000
0000
0000
0020
0030
0000
0000
0000
0000
0000
0000
0000
0000
,  // measure 38
0M00
0000
0000
0M00
0000
0000
0000
0000
0000
0000
0000
0000
0000
0000
0000
0000
;

//---------------dance-single - ----------------
#NOTES:
     dance-single:
     :
     Medium:
     5:
     0.281074,0.312305,0.145742,0.416406,0.000000,189.000000,175.000000,14.000000,40.000000,0.000000,0.000000,0.281074,0.312305,0.145742,0.416406,0.000000,189.000000,175.000000,14.000000,40.000000,0.000000,0.000000:
// measure 0
0000
0000
0000
0000
,  // measure 1
0000
0000
0000
0000
,  // measure 2
0000
0000
0000
0000
,  // measure 3
0000
0000
0000
0000
,  // measure 4
2000
0000
3010
1000
0010
1000
0001
0100
,  // measure 5
0002
0000
0003
0000
1000
0100
1000
0000
,  // measure 6
0002
0000
0013
0001
4000
0000
3001
1000
,  // measure 7
0200
0000
0310
0001
4000
0000
3004
0000
,  // measure 8
1003
0000
0100
0000
0010
0001
0010
0100
,  // measure 9
0200
0000
0300
0000
1000
0001
1000
0010
,  // measure 10
0100
0000
0001
0000
0400
0301
0001
0100
,  // measure 11
0020
0000
0030
0000
0010
1000
0010
0400
,  // measure 12
0301
0000
1000
0001
1000
0001
0010
0100
,  // measure 13
0200
0000
0300
1000
0100
0001
0100
1000
,  // measure 14
0001
0000
0100
0010
4000
3010
0100
0001
,  // measure 15
2000
0000
3001
1000
0010
0100
0010
0000
,  // measure 16
1020
0000
1030
0001
1000
0000
2002
0000
,  // measure 17
3003
0000
0000
0000
0000
0000
0000
0000
2002
3003
0000
0000
0001
0000
0000
0000
0001
0000
0000
0000
0000
0000
0000
0000
2100
0000
0000
0000
0000
0000
0000
0000
,  // measure 18
3100
1000
0100
0000
0010
0001
0010
0000
,  // measure 19
0001
0001
0000
1000
1000
0001
0100
0100
,  // measure 20
0010
0010
0000
1000
1010
0010
1000
0000
,  // measure 21
0001
0010
0100
0000
1100
0000
1001
0000
,  // measure 22
1000
0010
1000
0010
0100
0000
0101
0000
,  // measure 23
0001
0100
0001
0100
0010
1000
0002
0000
,  // measure 24
0023
2030
3020
0032
,  // measure 25
0203
0300
0000
0000
0000
0000
0000
0000
0020
0000
0000
0000
0000
0000
0000
0000
2030
0000
0000
0000
0000
0000
0000
0000
3200
0000
0000
0000
0000
0000
0000
0000
,  // measure 26
0310
0001
0011
0000
1001
0000
1000
1000
,  // measure 27
0000
0001
0001
1000
0010
0010
0100
0100
,  // measure 28
0000
0001
0101
0100
0001
0000
1000
0100
,  // measure 29
0010
0000
0011
0000
1001
0000
0001
0100
,  // measure 30
0001
0100
0010
0000
1010
0000
1000
0100
,  // measure 31
1000
0100
0010
0000
0002
0000
0203
0000
,  // measure 32
2300
3200
0302
0000
,  // measure 33
0003
2000
3200
0302
,  // measure 34
0203
2300
3020
0000
,  // measure 35
0030
0010
0200
0302
,  // measure 36
0023
0230
2300
0000
,  // measure 37
3002
0000
0003
0000
;

//---------------dance-single - ----------------
#NOTES:
     dance-single:
     :
     Easy:
     2:
     0.147229,0.175671,0.052051,0.156152,0.000000,99.000000,94.000000,5.000000,15.000000,0.000000,0.000000,0.147229,0.175671,0.052051,0.156152,0.000000,99.000000,94.000000,5.000000,15.000000,0.000000,0.000000:
0000
0000
0000
0000
,
0000
0000
0000
0000
,
0000
0000
0000
0000
,
0000
0000
0000
0000
,
1000
0000
0010
0010
,
1000
0000
0001
0001
,
0100
0000
0001
0001
,
1000
0000
0001
0001
,
0010
0010
0001
0000
,
0100
0000
0010
1000
,
0010
0010
1000
0000
,
0001
0000
1000
1000
,
0001
0010
0000
0010
,
0001
0000
0010
0100
,
0010
0000
0100
1000
,
1000
0000
1000
0001
,
1000
0010
1000
0000
,
0010
0110
0100
0001
,
0100
0001
0000
1000
,
0001
0000
0001
1000
,
1000
0000
1010
1000
,
0000
0001
0101
0100
,
0001
0000
0001
1000
,
1000
0010
1000
0200
,
0000
0320
0000
0032
,
0003
1000
2000
0000
,
3020
0000
0130
0010
,
0000
0010
1000
1000
,
0000
1100
1000
0000
,
0001
0011
0010
0001
,
0000
0001
1000
1000
,
0010
0100
0002
0000
,
0023
0000
0230
0000
,
1000
0000
2300
0000
,
3020
0000
0230
0000
,
0000
0000
0302
0000
,
2003
0000
3200
0000
,
0020
0000
0330
0000
;
