#TITLE:We Be Burnin';
#SUBTITLE:[radio edit];
#ARTIST:Sean Paul;
#TITLETRANSLIT:;
#SUBTITLETRANSLIT:;
#ARTISTTRANSLIT:;
#GENRE:;
#CREDIT:;
#MENUCOLOR:;
#METERTYPE:DDR;
#BANNER:burnin.png;
#BACKGROUND:burnin-bg.png;
#LYRICSPATH:;
#CDTITLE:!hiryuu.png;
#MUSIC:burnin.ogg;
#OFFSET:0.000;
#SAMPLESTART:98.452;
#SAMPLELENGTH:16.412;
#SELECTABLE:YES;
#LISTSORT:;
#BPMS:0.000=116.990;
#STOPS:;
#BGCHANGES:;
#ATTACKS:;

//---------------dance-single - MANIAC----------------
#NOTES:
     dance-single:
     MANIAC:
     Hard:
     9:
     0.603,0.588,0.083,0.483,0.437:
0000
0000
0000
0000
,
0000
0000
0000
0000
,
0000
0000
0000
0000
,
0000
0000
0000
0000
,
0000
0000
1000
0100
0010
0000
0010
0001
0000
0000
0001
0000
0100
0000
0100
0020
,
0000
0000
2030
0000
0002
3000
0000
0023
0000
0000
0032
0000
2000
0000
0003
0000
,
3000
0000
1000
0010
0100
0000
0100
0001
0000
0000
0001
0000
0010
0000
0010
0200
,
0000
0000
2300
0000
0002
0000
0000
0000
3003
0000
0000
1000
0100
1000
0010
1000
,
0100
0000
0000
1000
0000
0000
0001
0000
0000
0010
0000
0001
0000
0001
0000
0100
0000
0000
0010
0000
1000
0000
0100
0000
,
1000
0000
0000
0001
0000
0000
0100
0000
0000
0001
0000
0010
0000
0010
0000
0001
0000
0000
1000
0000
0000
0000
0000
0000
,
0001
0000
0010
0000
0001
0100
0001
1000
0001
0000
1000
0000
0100
1000
0000
1000
,
0100
0000
0010
0000
0001
0100
0001
0010
0001
0000
1000
0000
0000
0000
0010
0100
,
0001
0000
0000
0000
0000
0000
0100
0000
0000
0010
0000
0000
0100
0000
0000
0000
0000
0000
0010
0000
0000
0000
1000
0000
0000
0000
1000
0000
0000
0000
0010
0000
0000
0000
0000
0000
1000
0000
0000
0100
0000
0000
0000
0000
0000
0010
0000
0000
,
0001
0000
1000
0000
0100
0000
1000
0000
0000
0100
0000
0001
0000
0001
0000
0100
0000
0000
1000
0000
0000
0000
0000
0000
,
0001
0000
1000
0000
0010
0100
0010
1000
0010
0000
0100
0000
0001
0000
1000
0100
,
1000
0000
0100
0000
0010
0001
0000
0001
0010
0000
0100
0000
1000
0000
0001
0000
,
1001
0000
0001
0100
0020
1000
0130
0001
,
0020
0100
0031
1000
0010
0100
0001
0010
,
0110
0000
1000
0010
0200
0010
0301
1000
,
0200
0010
1300
0001
0100
0010
1000
0100
,
0110
0000
1000
2000
3001
0002
0103
0200
,
0310
0020
1030
0100
0010
0001
0100
0010
,
1001
0000
1000
0100
2000
0000
3001
0010
,
0001
0100
0010
1000
0020
0000
0230
0000
,
0301
0000
0000
0000
0000
0000
0100
0000
0000
0001
0000
0000
0100
0000
0000
0000
0000
0000
0010
0000
0000
0000
1000
0000
0000
0000
1000
0000
0000
0000
0100
0000
0000
0000
0000
0000
0010
0000
0000
0000
0001
0000
0000
0000
0100
0000
0000
0000
,
0010
0000
0000
0000
0000
0000
1000
0000
0000
0000
0000
0000
0100
0000
0000
0000
0000
0000
0010
0000
0000
0000
0001
0000
0000
0000
0001
0000
0000
0000
0100
0000
0000
0000
0000
0000
0010
0000
0000
0000
0000
0000
0000
0000
0000
1000
0000
0000
,
0001
0000
1000
0100
1000
0100
0000
0010
0001
0000
0100
0000
0010
1000
0001
0010
,
0001
0000
1000
0100
0010
0001
0010
0100
1000
0000
0001
0000
0000
0100
0001
1000
,
0001
0000
0000
0000
0000
0000
0010
0000
0000
0000
0000
0000
0100
0000
0000
0000
0000
0000
1000
0000
0000
0000
0100
0000
0000
0000
0100
0000
0000
0000
0010
0000
0000
0000
0000
0000
0001
0000
0000
0100
0000
0000
0001
0000
0000
0100
0000
0000
,
0010
0000
0000
1000
0000
0000
0001
0000
1000
0000
1000
0000
0100
0000
0000
0010
0000
0000
0001
0000
0000
1000
0000
0000
,
0000
0000
0100
0010
0100
0000
0010
0000
0001
0000
0100
0000
0010
1000
0000
1000
,
0100
0000
0010
0001
0010
0000
0001
0000
1000
0000
0001
0000
1000
0100
1000
0000
,
0100
0000
0000
0000
0000
0000
1000
0000
0000
0100
0000
0000
0010
0000
0000
0000
0000
0000
0010
0000
0000
0000
0001
0000
0000
0000
0001
0000
0000
0000
0010
0000
0000
0000
0000
0000
0100
0000
0000
0000
1000
0000
0000
0000
1000
0000
0000
0000
,
0100
0000
0000
0000
0000
0000
1000
0000
0000
0010
0000
0000
0100
0000
0000
0000
0000
0000
0100
0000
0000
0000
0001
0000
0000
0000
0001
0000
0000
0000
0100
0000
0000
0000
0000
0000
0001
0000
0000
0000
0000
0000
1000
0000
0000
0000
0000
0000
,
0000
0000
0001
0010
0100
0000
1000
0000
0010
0000
0100
0000
0001
0000
0010
0001
,
1000
0100
0000
1000
0010
0000
0100
0000
0001
1000
0001
0000
0000
0000
1000
0100
,
0010
0000
0000
0000
0000
0000
0001
0000
0000
0100
0000
0000
0001
0000
0000
0000
0010
0000
0000
0000
0010
0000
0000
0000
0001
0000
0000
0000
0000
0000
0100
0000
0000
0000
0000
0000
0010
0000
0000
0000
0000
0000
1000
0000
0000
0100
0000
0000
,
1000
0000
0000
0010
0000
0000
0100
0000
0000
0001
0000
0000
1000
0000
0000
0000
0010
0000
0000
0000
0010
0000
0000
0000
1000
0000
0000
0000
0000
0000
0010
0000
0000
0100
0000
0000
0001
0000
0000
0000
0000
0000
1000
0000
0000
0000
0000
0000
,
0000
0000
0001
0100
0020
0000
1030
0100
,
0110
0001
0010
0100
2000
0000
3100
0010
,
1001
0000
1000
0100
0020
0001
0130
1000
,
0020
0100
1030
0100
0010
0001
1000
0001
,
1001
0000
0001
0010
0200
1000
0310
0001
,
0200
0010
0301
0100
0010
1000
0100
0010
,
1001
0000
0001
0002
1003
2000
3010
0020
,
0130
0200
0301
0010
0100
1000
0100
0010
,
1001
0000
0001
0100
0020
0000
1030
0000
,
0001
0010
0100
1000
0020
0000
0230
0000
,
0300
0000
0001
0000
0100
0001
1000
0002
0000
0000
1003
0000
0010
0000
0100
0002
,
0000
0000
0023
0000
0200
0030
0000
2300
0000
0000
3020
0000
0200
0000
0030
0000
,
0300
0000
0001
0100
0010
0000
1000
0200
0000
0000
1300
0000
0010
0000
0100
0002
,
0000
0000
0203
0000
0020
0300
0000
2030
0000
0000
3200
0000
0020
0000
0300
0000
,
0030
0000
0001
0100
0010
0000
0010
1000
0000
0000
1000
0000
0100
0000
0010
0002
,
0000
0000
2003
0000
0020
3000
0000
0230
0000
0000
0302
0000
0020
0000
0003
0000
,
0030
0000
0100
1000
0010
0000
0010
0100
0000
0000
0001
0000
1000
0000
0010
0200
,
0000
0000
0302
0000
2000
0000
3003
0000
1000
0000
0001
1000
0001
0000
1000
0000
,
2002
0000
3003
0000
;

//---------------dance-single - TRICKY----------------
#NOTES:
     dance-single:
     TRICKY:
     Medium:
     5:
     0.259,0.256,0.083,0.050,0.000:
0000
0000
0000
0000
,
0000
0000
0000
0000
,
0000
0000
0000
0000
,
0000
0000
0000
0000
,
1000
1000
1000
0001
,
0100
0010
2000
0000
,
3001
0001
0001
1000
,
0100
1000
0020
0000
,
0130
0100
0010
0010
,
1000
0001
0100
0100
,
0001
0001
0001
1000
,
0100
0100
0100
1000
,
0010
0010
1000
1000
,
0001
0100
0010
0010
,
1000
0100
0010
0001
,
0100
0010
1000
0001
,
1001
0001
0001
0010
,
0010
0100
1000
0010
,
0110
0100
0100
0010
,
0010
1000
0001
0010
,
0110
0100
1000
0010
,
0100
0001
1000
0100
,
0110
0010
0001
1000
,
0010
1000
0001
0010
,
0001
0001
0100
0100
,
0010
1000
0100
0100
,
1000
1000
1000
0010
,
0100
0100
0100
0001
,
0010
0010
0100
0100
,
1000
0010
0100
0100
,
0001
0010
0100
1000
,
0010
0000
0100
0000
0001
0000
1000
0001
,
1000
1000
0001
0001
,
0100
0010
0100
0100
,
0010
1000
0100
0010
,
0001
0100
0010
0110
,
0010
1000
0010
0001
,
0010
0100
0001
0010
,
0100
0000
1000
0000
,
0001
0001
1000
1000
,
1001
0001
0001
0100
,
0100
0010
1000
0100
,
0110
0001
0001
0010
,
0010
0100
1000
0001
,
1001
1000
0100
0010
,
0001
0100
0010
1000
,
1001
0001
0001
0100
,
0100
0010
1000
0001
,
1001
1000
1000
1000
,
0010
0100
0002
0000
,
0103
0100
0100
0010
,
1000
0100
0020
0000
,
0031
0001
0001
0010
,
0100
1000
0002
0000
,
1003
1000
1000
0010
,
0100
0001
0020
0000
,
0130
0000
0000
0000
;

//---------------dance-single - BASIC----------------
#NOTES:
     dance-single:
     BASIC:
     Easy:
     2:
     0.144,0.210,0.025,0.000,0.000: // measure 1
0000
0000
0000
0000
,  // measure 2
0000
0000
0000
0000
,  // measure 3
0000
0000
0000
0000
,  // measure 4
0000
0000
0000
0000
,  // measure 5
1000
0000
1000
0000
,  // measure 6
0001
0000
0001
0000
,  // measure 7
0100
0010
0100
0000
,  // measure 8
0001
1000
0001
0000
,  // measure 9
1000
0000
0100
0000
,  // measure 10
0010
0000
0001
0000
,  // measure 11
0100
0100
0100
0000
,  // measure 12
0010
0010
0010
0000
,  // measure 13
1000
0000
0001
0000
,  // measure 14
0100
0000
0010
0000
,  // measure 15
1000
1000
1000
0000
,  // measure 16
0001
0001
0001
0000
,  // measure 17
1000
0000
1000
0000
,  // measure 18
0100
0000
0100
0000
,  // measure 19
0010
0000
0010
0000
,  // measure 20
0001
0000
0001
0000
,  // measure 21
1000
0000
0001
0000
,  // measure 22
0100
0000
0010
0000
,  // measure 23
1000
0000
0001
0000
,  // measure 24
0010
0000
0100
0000
,  // measure 25
1000
0000
1000
0000
,  // measure 26
0001
0000
0001
0000
,  // measure 27
0100
0010
0100
0010
,  // measure 28
1000
0001
1000
0000
,  // measure 29
0001
0000
0010
0000
,  // measure 30
0100
0000
1000
0000
,  // measure 31
0010
0100
0010
0000
,  // measure 32
1000
0001
1000
0000
,  // measure 33
0001
0000
0001
0000
,  // measure 34
1000
0000
1000
0000
,  // measure 35
0010
0100
0010
0100
,  // measure 36
0001
1000
0001
1000
,  // measure 37
0100
0000
0010
0000
,  // measure 38
0001
0000
1000
0000
,  // measure 39
1001
0000
0000
0000
,  // measure 40
0110
0000
0000
0000
,  // measure 41
1000
0000
1000
0000
,  // measure 42
0001
0000
0001
0000
,  // measure 43
0100
0000
0100
0000
,  // measure 44
0010
0000
0010
0000
,  // measure 45
1000
0000
0100
0000
,  // measure 46
0010
0000
0001
0000
,  // measure 47
0100
0000
0010
0000
,  // measure 48
1000
0000
0001
0000
,  // measure 49
1000
0000
1000
0000
,  // measure 50
0001
0000
0001
0000
,  // measure 51
0100
0000
0100
0000
,  // measure 52
0010
0000
0010
0000
,  // measure 53
1000
0000
0100
0000
,  // measure 54
0010
0000
0001
0000
,  // measure 55
0010
0000
0100
0000
,  // measure 56
1000
0000
0001
0000
,  // measure 57
1001
0000
0000
0000
;
