#TITLE:The Legend of Hare Hare Yukai;
#SUBTITLE:(Omega Letty Album Version);
#ARTIST:DJ Kaltaro;
#TITLETRANSLIT:;
#SUBTITLETRANSLIT:;
#ARTISTTRANSLIT:;
#CREDIT:;
#BANNER:lohhy.png;
#BACKGROUND:lohhy-bg.png;
#LYRICSPATH:;
#CDTITLE:!minthir.png;
#MUSIC:lohhy.ogg;
#OFFSET:-0.007;
#SAMPLESTART:11.562;
#SAMPLELENGTH:23.059;
#SELECTABLE:YES;
#BPMS:0.000=333.000,320.000=666.000,328.000=600.000,329.000=500.000,330.000=450.000,331.000=380.000,332.000=320.000,332.500=266.000,333.000=220.000,333.500=181.000,334.000=140.000,334.500=116.000,335.000=97.000,335.500=83.250,344.000=333.000;
#STOPS:;
#BGCHANGES:;

//---------------dance-single - MANIAC----------------
#NOTES:
     dance-single:
     MANIAC:
     Hard:
     10:
     0.759,0.898,0.551,0.038,0.009: // measure 1
0000
0000
0000
0000
,  // measure 2
0000
0000
0000
0000
,  // measure 3
0000
0000
0000
0000
,  // measure 4
0000
0000
0000
0000
,  // measure 5
0000
0000
0000
0000
,  // measure 6
0000
0000
0000
0000
,  // measure 7
0000
0000
0000
0000
,  // measure 8
0000
0000
0000
0000
,  // measure 9
1001
0000
0000
1010
0000
0000
1000
0000
,  // measure 10
0010
0000
0100
0000
0001
0010
0001
0000
,  // measure 11
0011
0000
0000
0101
0000
0000
0110
0000
,  // measure 12
1010
0000
1000
0000
0100
1000
0100
0000
,  // measure 13
1000
0010
0100
0001
,  // measure 14
0010
0001
0101
0000
,  // measure 15
0100
0010
1000
0010
,  // measure 16
0100
0000
0001
0000
1000
0001
1000
0001
,  // measure 17
1000
0100
0010
0100
,  // measure 18
0001
0100
1000
0100
,  // measure 19
0001
0100
0010
0100
,  // measure 20
1000
0100
0001
0100
,  // measure 21
1000
0100
0010
0100
,  // measure 22
1000
0100
0010
0011
,  // measure 23
0000
0101
0000
1010
,  // measure 24
0000
0000
0010
0000
0100
0010
0100
0010
,  // measure 25
0100
0010
0100
1000
,  // measure 26
0100
0001
0100
1000
,  // measure 27
0100
0010
0100
0001
,  // measure 28
0100
0010
0100
1000
,  // measure 29
0100
0001
0100
0010
,  // measure 30
0100
1000
0100
0011
,  // measure 31
0000
0101
0000
1001
,  // measure 32
0000
1000
0100
0010
,  // measure 33
0001
0010
0001
0100
,  // measure 34
0001
0010
0001
0001
,  // measure 35
1000
0100
1000
0010
,  // measure 36
1000
0100
1000
1000
,  // measure 37
0010
0000
0100
0001
,  // measure 38
0000
0011
0000
0001
,  // measure 39
0010
0000
0010
0100
,  // measure 40
0000
0100
1000
0010
,  // measure 41
0100
0001
0100
0001
,  // measure 42
1000
0000
0001
0000
1000
0001
1000
0000
,  // measure 43
0010
1000
0010
0100
,  // measure 44
0010
0000
1000
0000
0010
1000
0010
0000
,  // measure 45
1000
0100
0001
0000
,  // measure 46
0001
0100
1000
0000
,  // measure 47
1001
0001
1001
1000
,  // measure 48
1001
0000
0110
0000
,  // measure 49
0010
1000
0001
0010
,  // measure 50
0001
0000
0100
0000
0001
0100
0001
0000
,  // measure 51
1000
0010
1000
0001
,  // measure 52
0100
0000
0010
0000
0100
0010
0100
0000
,  // measure 53
0101
0000
0001
1000
,  // measure 54
0000
1100
0000
1000
,  // measure 55
0100
0000
0100
1000
,  // measure 56
0000
0010
0100
0001
,  // measure 57
1001
0000
0001
1000
,  // measure 58
0001
0101
0000
1100
,  // measure 59
0000
0101
0000
0001
,  // measure 60
0010
0100
0000
1000
,  // measure 61
1001
0000
1000
0001
,  // measure 62
0000
1000
0100
0010
,  // measure 63
0100
0010
0001
1000
,  // measure 64
0001
0000
1000
0000
0010
1000
0010
1000
,  // measure 65
0010
1000
0100
0001
,  // measure 66
0100
0000
1000
0000
0010
0100
0010
0000
,  // measure 67
1000
0010
0001
0010
,  // measure 68
1000
0000
0100
0000
0010
0100
0010
0000
,  // measure 69
0001
1000
0001
0000
1000
0000
0001
0000
,  // measure 70
0010
0100
0010
0000
0110
0000
1001
0000
,  // measure 71
0000
0110
0000
1001
,  // measure 72
0000
0001
0010
0100
,  // measure 73
1000
0100
1000
0000
0100
0000
1000
0010
,  // measure 74
1000
0000
0001
0000
0100
0000
0001
0010
,  // measure 75
0001
0000
0100
0000
0001
0000
1000
0001
,  // measure 76
1000
0100
0010
0001
,  // measure 77
0011
0000
0110
0000
,  // measure 78
1100
0000
1001
1100
,  // measure 79
0000
1010
0000
1100
,  // measure 80
0110
0000
0011
0000
,  // measure 81
2002
0000
0000
0000
,  // measure 82
0000
0000
0000
0000
,  // measure 83
0000
0000
0000
0000
,  // measure 84
0000
0000
0000
0000
0000
0000
0000
3003
,  // measure 85
1000
0000
0000
0000
0001
0000
0000
1000
0100
0000
0000
0000
1000
0000
0000
0000
,  // measure 86
0001
0000
0000
0000
0100
0000
0000
0001
0010
0000
0000
0000
0100
0000
0000
0000
,  // measure 87
1000
0100
0010
0001
,  // measure 88
1000
0010
0100
0001
,  // measure 89
1000
0100
0010
0001
,  // measure 90
1000
0000
0001
0000
1000
0001
1000
0001
,  // measure 91
0100
0010
1000
0001
,  // measure 92
1000
0100
0010
0001
,  // measure 93
0100
0010
1000
0001
,  // measure 94
0100
0000
0010
0000
0100
0010
0100
0010
,  // measure 95
1000
0001
0100
0001
,  // measure 96
1000
0000
0100
0000
1000
0100
1000
0100
,  // measure 97
1000
0100
0010
0001
,  // measure 98
0010
0000
0100
0000
1000
0001
1000
0001
,  // measure 99
1000
0010
0100
0001
,  // measure 100
0010
0001
0100
0101
,  // measure 101
0001
1001
1000
1100
,  // measure 102
0100
0110
0000
0010
,  // measure 103
0001
0010
0100
1000
,  // measure 104
0100
0010
0001
0010
,  // measure 105
0100
1000
0010
0100
,  // measure 106
0001
0000
1000
0000
0001
0100
0001
0100
,  // measure 107
0001
1000
0100
0010
,  // measure 108
0100
1000
0100
0010
,  // measure 109
0001
0100
0010
1000
,  // measure 110
0001
0000
0100
0000
0010
1000
0010
1000
,  // measure 111
0010
0100
0101
0100
,  // measure 112
0001
0000
1000
0000
0100
1000
0100
1000
,  // measure 113
0100
1000
1010
0010
,  // measure 114
0100
0000
0001
0000
0010
0001
0010
0001
,  // measure 115
0010
0001
0010
0100
,  // measure 116
0010
0001
0010
0100
,  // measure 117
1000
0100
0010
0100
,  // measure 118
1000
0000
0100
0000
0010
0001
0010
0001
,  // measure 119
0010
0001
1000
0100
,  // measure 120
1000
0000
0001
0000
1000
0001
1000
0001
,  // measure 121
1000
0010
0100
0001
,  // measure 122
0010
0000
0001
0000
0100
0001
0100
0001
,  // measure 123
0100
0010
1000
0100
,  // measure 124
1000
0000
0010
0000
0100
0010
0100
0010
,  // measure 125
0100
0000
0001
0000
1000
0010
1000
0000
,  // measure 126
1010
0000
0010
0000
0100
0010
0100
0000
,  // measure 127
0110
0000
0000
0101
0000
0000
0011
0000
,  // measure 128
0110
0000
0000
1100
0000
0000
1010
0000
,  // measure 129
0110
0000
0000
0101
0000
0000
0011
0000
,  // measure 130
0110
0000
0000
1100
0000
0000
1001
0000
,  // measure 131
0001
0010
0001
0100
,  // measure 132
0010
0000
1000
0000
0100
1000
0100
1000
,  // measure 133
0100
1000
0010
0100
,  // measure 134
0001
0000
0010
0000
0001
1000
0001
2000
,  // measure 135
0002
0000
0000
0000
0000
0000
0000
3000
,  // measure 136
0003
0000
0000
0000
;

//---------------dance-single - TRICKY----------------
#NOTES:
     dance-single:
     TRICKY:
     Medium:
     8:
     0.486,0.641,0.370,0.047,0.000:
0000
0000
0000
0000
,
0000
0000
0000
0000
,
0000
0000
0000
0000
,
0000
0000
0000
0000
,
0000
0000
0000
0000
,
0000
0000
0000
0000
,
0000
0000
0000
0000
,
0000
0000
0000
0000
,
1000
0000
0100
0000
,
1000
0000
0100
0000
,
0010
0000
0001
0000
,
0010
0000
0001
0000
,
1000
0100
1000
0000
,
0001
0010
0001
0000
,
1000
0010
0100
0001
,
1000
0000
1001
0000
,
0001
0000
0001
0000
,
1000
0000
1000
0000
,
0010
0100
0010
0000
,
0100
0010
0100
0000
,
0001
0000
0010
0000
,
0100
0000
1000
0000
,
0001
0010
0001
0000
,
1000
0100
1000
0000
,
0001
0000
0001
0000
,
1000
0000
1000
0000
,
0010
0000
0100
0000
,
0001
0000
1000
0000
,
0001
0000
0010
0000
,
0100
0000
1000
0100
,
0000
0011
0000
1001
,
0000
1000
0010
0100
,
0000
0000
0100
0001
,
1000
0100
0000
0000
,
0000
0000
0010
0001
,
0100
0010
0000
1000
,
0100
0000
0100
1000
,
0000
1001
0000
0001
,
0010
0000
0010
0001
,
0000
0001
0100
0010
,
0000
0000
0100
0001
,
1000
0100
0000
1100
,
0000
1001
0000
0001
,
0010
0000
0000
0010
0000
0000
0010
0000
,
0001
0000
1000
0001
,
0000
0000
0000
0001
,
0010
0100
1000
0001
,
0010
0100
1000
0001
,
0010
0001
1000
0000
,
0000
1001
0000
0110
,
0000
0001
0010
0100
,
1000
0000
1001
0000
,
0010
0100
0001
0000
,
0000
0011
0000
1100
,
0000
0010
0100
0001
,
1000
0000
1001
0000
,
1000
0100
0010
0000
,
0000
1001
0000
1010
,
0000
0010
0100
0001
,
0010
0000
0110
0000
,
0100
1000
0100
0000
,
0000
0110
0000
0011
,
0000
0001
0010
0100
,
1000
0000
1001
0000
,
1000
0100
0010
0001
,
0010
0100
1000
0100
,
0010
0001
0010
0100
,
1000
0100
0010
0001
,
0010
0000
0000
0010
,
0001
0000
0001
0010
,
0000
0100
0000
1000
,
0000
0010
0100
0001
,
1000
0100
1000
0001
,
0000
0001
0010
0100
,
0000
1000
0010
0100
,
0000
0001
0010
0100
,
2000
0000
0000
0000
,
0000
0000
0000
3001
,
0000
1000
0000
0010
,
0100
0000
0010
0000
,
2002
0000
0000
0000
,
0000
0000
0000
0000
,
0000
0000
0000
0000
,
0000
0000
3003
0000
,
1000
1000
1000
0000
,
0001
0001
0001
0000
,
1000
0001
0000
0001
,
1000
0000
1000
0100
,
0000
0100
0010
0001
,
0000
0000
0001
0000
,
0001
0100
0000
0100
,
0010
0000
0010
1000
,
0000
1000
0100
0010
,
0000
0000
0001
0010
,
0100
0000
0100
1000
,
0000
0000
1000
0010
,
0100
0000
0100
0001
,
0000
0000
0001
0010
,
0001
0000
0001
0010
,
0000
1100
0000
1010
,
0000
0101
0000
0011
,
0000
1001
0000
0000
,
0001
0010
0000
0010
,
0001
0000
0001
1000
,
0000
1000
0001
0010
,
0000
0000
0110
0000
,
0100
1000
0000
1000
,
0010
0000
0010
0001
,
0000
0001
0010
1000
,
0000
0000
1000
0001
,
0010
0000
0010
0001
,
0000
0000
0001
1000
,
0100
0000
0100
1000
,
0000
1001
0000
0000
,
1001
0000
0110
0000
,
1001
0000
0110
0000
,
0001
0010
0100
1000
,
0001
0010
0100
1000
,
1001
0000
0001
0010
,
0000
1100
0000
1000
,
0010
0000
0100
0001
,
0000
0001
0010
0001
,
0010
0000
0100
1000
,
0000
1100
0000
0010
,
0100
0000
1001
0000
,
0001
0100
0000
0101
,
0000
1000
0001
0000
,
0000
0100
0001
0000
,
0000
1000
0001
0100
,
0001
0000
1001
0000
,
1000
0000
0100
0010
,
0000
0011
0000
0001
,
0100
0000
0100
0010
,
0000
1010
0000
1000
,
2002
0000
0000
0000
,
3003
0000
0000
0000
;

//---------------dance-single - BASIC----------------
#NOTES:
     dance-single:
     BASIC:
     Easy:
     4:
     0.232,0.385,0.123,0.047,0.000:
0000
0000
0000
0000
,
0000
0000
0000
0000
,
0000
0000
0000
0000
,
0000
0000
0000
0000
,
0000
0000
0000
0000
,
0000
0000
0000
0000
,
0000
0000
0000
0000
,
0000
0000
0000
0000
,
1000
0000
0000
0000
,
1000
0000
0000
0000
,
0001
0000
0000
0000
,
0001
0000
0000
0000
,
1000
0000
1000
0000
,
0001
0000
0001
0000
,
1000
0000
0001
0000
,
1001
0000
0000
0000
,
1000
0000
0000
0000
,
0100
0000
0000
0000
,
0010
0000
0000
0000
,
0001
0000
0000
0000
,
1000
0000
0000
0000
,
0010
0000
0000
0000
,
0100
0000
0000
0000
,
0001
0000
0000
0000
,
1000
0000
1000
0000
,
1000
0000
0000
0000
,
0001
0000
0001
0000
,
0001
0000
0000
0000
,
0100
0000
0000
0000
,
0010
0000
0000
0000
,
1000
0000
0000
0000
,
0001
0000
0000
0000
,
0100
0000
0000
0000
,
0010
0000
0000
0000
,
1000
0000
0000
0000
,
0001
0000
0000
0000
,
1000
0000
0000
0000
,
1000
0000
0000
0000
,
0001
0000
0000
0000
,
0001
0000
0000
0000
,
1000
0000
1000
0000
,
1000
0000
0000
0000
,
0010
0000
0010
0000
,
0010
0000
0000
0000
,
0100
0000
0000
0000
,
0001
0000
0000
0000
,
1000
0000
0001
0000
,
1000
0000
0000
0000
,
0001
0000
0000
0000
,
0001
0000
0000
0000
,
0010
0000
0000
0000
,
0010
0000
0000
0000
,
0100
0000
0000
0000
,
0100
0000
0000
0000
,
1000
0000
0000
0000
,
1000
0000
0000
0000
,
0001
0000
0010
0000
,
0001
0000
0000
0000
,
1000
0000
0100
0000
,
1000
0000
0000
0000
,
1001
0000
0000
0000
,
1001
0000
0000
0000
,
0110
0000
0000
0000
,
0110
0000
0000
0000
,
1000
0000
0100
0000
,
1000
0000
0100
0000
,
0010
0000
0001
0000
,
0010
0000
0001
0000
,
1000
0000
0001
0000
,
1000
0000
0001
0000
,
0100
0000
0010
0000
,
0100
0000
0010
0000
,
1000
0000
0000
0000
,
1000
0000
0000
0000
,
1000
0000
0000
0000
,
1000
0000
0000
0000
,
2000
0000
0000
0000
,
0000
0000
0000
0000
,
3001
0000
0000
0000
,
1000
0000
0000
0000
,
2002
0000
0000
0000
,
0000
0000
0000
0000
,
0000
0000
0000
0000
,
3003
0000
0000
0000
,
1000
0000
0000
0000
,
0001
0000
0000
0000
,
1000
0000
0000
0000
,
1000
0000
0000
0000
,
0001
0000
0000
0000
,
0001
0000
0000
0000
,
0100
0000
0000
0000
,
0100
0000
0000
0000
,
0010
0000
0000
0000
,
0010
0000
0000
0000
,
1000
0000
0001
0000
,
1000
0000
0000
0000
,
0010
0000
0100
0000
,
0010
0000
0000
0000
,
1000
0000
0000
0000
,
0010
0000
0000
0000
,
0100
0000
0000
0000
,
0001
0000
0000
0000
,
1000
0000
1000
0000
,
0001
0000
0001
0000
,
1000
0000
0001
0000
,
1001
0000
0000
0000
,
0100
0000
0100
0000
,
0010
0000
0010
0000
,
0100
0000
0010
0000
,
0110
0000
0000
0000
,
0001
0000
0000
0000
,
0001
0000
0000
0000
,
1000
0000
0000
0000
,
1000
0000
0000
0000
,
0001
0000
1000
0000
,
0100
0000
0000
0000
,
1000
0000
0001
0000
,
0100
0000
0000
0000
,
0001
0000
0000
0000
,
0001
0000
0000
0000
,
0001
0000
0000
0000
,
0001
0000
0000
0000
,
1000
0000
0000
0000
,
1000
0000
0000
0000
,
1000
0000
0000
0000
,
1000
0000
0000
0000
,
1001
0000
0000
0000
,
0110
0000
0000
0000
,
1001
0000
0000
0000
,
0110
0000
0000
0000
,
0001
0000
0010
0000
,
0001
0000
0000
0000
,
1000
0000
0100
0000
,
1000
0000
0000
0000
,
2002
0000
0000
0000
,
3003
0000
0000
0000
;

//---------------dance-single - SIMPLE----------------
#NOTES:
     dance-single:
     SIMPLE:
     Beginner:
     2:
     0.110,0.255,0.038,0.000,0.000:
0000
0000
0000
0000
,
0000
0000
0000
0000
,
0000
0000
0000
0000
,
0000
0000
0000
0000
,
0000
0000
0000
0000
,
0000
0000
0000
0000
,
0000
0000
0000
0000
,
0000
0000
0000
0000
,
1000
0000
0000
0000
,
0000
0000
0000
0000
,
1000
0000
0000
0000
,
0000
0000
0000
0000
,
0001
0000
0000
0000
,
0000
0000
0000
0000
,
0001
0000
0000
0000
,
0000
0000
0000
0000
,
1000
0000
0000
0000
,
0000
0000
0000
0000
,
0001
0000
0000
0000
,
0000
0000
0000
0000
,
0100
0000
0000
0000
,
0000
0000
0000
0000
,
0010
0000
0000
0000
,
0000
0000
0000
0000
,
1000
0000
0000
0000
,
0000
0000
0000
0000
,
0001
0000
0000
0000
,
0000
0000
0000
0000
,
0100
0000
0000
0000
,
0000
0000
0000
0000
,
0010
0000
0000
0000
,
0000
0000
0000
0000
,
1000
0000
0000
0000
,
0000
0000
0000
0000
,
0001
0000
0000
0000
,
0000
0000
0000
0000
,
1001
0000
0000
0000
,
0000
0000
0000
0000
,
1001
0000
0000
0000
,
0000
0000
0000
0000
,
1000
0000
0000
0000
,
0010
0000
0000
0000
,
0100
0000
0000
0000
,
0001
0000
0000
0000
,
1000
0000
0000
0000
,
0000
0000
0000
0000
,
0000
0000
0000
0000
,
0000
0000
0000
0000
,
0001
0000
0000
0000
,
0000
0000
0000
0000
,
0100
0000
0000
0000
,
0000
0000
0000
0000
,
0010
0000
0000
0000
,
1000
0000
0000
0000
,
0001
0000
0000
0000
,
0100
0000
0000
0000
,
0001
0000
0000
0000
,
0000
0000
0000
0000
,
0010
0000
0000
0000
,
0000
0000
0000
0000
,
0100
0000
0000
0000
,
1000
0000
0000
0000
,
0001
0000
0000
0000
,
1000
0000
0000
0000
,
0001
0000
0000
0000
,
0000
0000
0000
0000
,
1000
0000
0000
0000
,
0000
0000
0000
0000
,
0010
0000
0000
0000
,
0100
0000
0000
0000
,
0010
0000
0000
0000
,
0100
0000
0000
0000
,
0001
0000
0000
0000
,
0000
0000
0000
0000
,
1000
0000
0000
0000
,
0000
0000
0000
0000
,
0001
0000
0000
0000
,
0000
0000
0000
0000
,
1000
0000
0000
0000
,
0000
0000
0000
0000
,
1001
0000
0000
0000
,
0000
0000
0000
0000
,
0000
0000
0000
0000
,
0000
0000
0000
0000
,
0000
0000
0000
0000
,
0000
0000
0000
0000
,
1000
0000
0000
0000
,
0000
0000
0000
0000
,
1000
0000
0000
0000
,
0000
0000
0000
0000
,
0001
0000
0000
0000
,
0000
0000
0000
0000
,
0001
0000
0000
0000
,
0000
0000
0000
0000
,
1000
0000
0000
0000
,
0001
0000
0000
0000
,
0100
0000
0000
0000
,
0010
0000
0000
0000
,
1000
0000
0000
0000
,
0100
0000
0000
0000
,
0010
0000
0000
0000
,
0001
0000
0000
0000
,
1000
0000
0000
0000
,
0000
0000
0000
0000
,
1000
0000
0000
0000
,
0000
0000
0000
0000
,
0001
0000
0000
0000
,
0000
0000
0000
0000
,
0001
0000
0000
0000
,
0000
0000
0000
0000
,
1000
0000
0000
0000
,
0010
0000
0000
0000
,
0100
0000
0000
0000
,
0001
0000
0000
0000
,
1000
0000
0000
0000
,
0100
0000
0000
0000
,
0010
0000
0000
0000
,
0001
0000
0000
0000
,
1000
0000
0000
0000
,
0000
0000
0000
0000
,
1000
0000
0000
0000
,
0000
0000
0000
0000
,
0001
0000
0000
0000
,
0000
0000
0000
0000
,
0001
0000
0000
0000
,
0000
0000
0000
0000
,
1000
0000
0000
0000
,
1000
0000
0000
0000
,
0001
0000
0000
0000
,
0001
0000
0000
0000
,
0000
0000
0000
0000
,
0000
0000
0000
0000
,
0000
0000
0000
0000
,
0000
0000
0000
0000
,
1001
0000
0000
0000
;

//---------------dance-single - Trick Master Mint----------------
#NOTES:
     dance-single:
     Trick Master Mint:
     Challenge:
     10:
     0.820,1.000,1.000,0.294,0.076:
0000
0000
0000
0000
,
0000
0000
0000
0000
,
0000
0000
0000
0000
,
0000
0000
0000
0000
,
0000
0000
0000
0000
,
0000
0000
0000
0000
,
0000
0000
0000
0000
,
0000
0000
0000
0000
,
1000
0000
0000
0001
0100
0000
0010
0000
,
0110
0000
1001
0000
,
0001
0000
0000
1000
0100
0000
0010
0000
,
0011
0010
0110
0000
,
0010
0000
0000
1000
0001
0000
0100
0000
,
0110
0000
1001
0000
,
0010
1000
0001
0100
,
0010
0000
1000
0001
1000
0001
1000
0000
,
1000
0100
1000
1010
,
0000
1001
0000
0001
,
0010
0001
0100
0110
,
1010
0000
0000
1100
0000
0000
1001
0000
,
0001
0100
1000
0200
,
0000
0000
0310
0020
,
0030
1000
0100
0010
,
0001
1000
0100
0010
,
0011
0001
0100
0101
,
0000
1100
0000
0100
,
1100
0100
0010
0011
,
1001
0000
0000
1100
0000
0000
1001
0000
,
0101
0001
1000
2002
,
0000
0000
3003
0110
,
0000
1001
0000
0110
,
0000
0010
0100
0010
,
1001
0100
1000
0010
,
0100
0001
1000
0010
,
0100
0010
1000
1100
,
0100
1000
0000
1000
0100
0000
1100
0000
,
1001
0100
0001
0010
,
0100
0010
0001
1000
,
0010
0100
0001
0101
,
0001
0100
0000
0100
0001
0000
0101
0000
,
1001
0100
1000
0001
,
0100
0001
0010
0100
,
0010
0001
0100
0110
,
0100
0010
0000
0010
0100
0000
0110
0000
,
1010
0010
0010
1000
,
1100
0010
0010
0001
,
0101
1000
1100
0010
,
0011
1001
1100
1001
,
0110
0010
2002
0000
,
3003
2200
3300
0202
,
0303
1000
0001
0100
,
0010
0000
1001
0000
,
1100
0010
0001
0101
,
0000
1001
0000
1000
,
0011
0000
0001
1100
,
0000
1000
0001
0100
,
0001
0000
1000
0100
0010
0000
0000
0000
,
0100
1001
0000
1000
,
0000
0000
0010
0100
1000
0000
1000
0000
,
1001
0000
0110
0000
,
1000
0000
0010
0100
0001
0000
0000
0000
,
0010
0011
0000
1100
,
0100
1000
0001
1000
,
0010
0100
0001
0100
,
0020
1000
1000
1000
,
1030
0011
0100
1000
,
1100
0001
1000
0001
,
1001
0000
0110
0010
,
1000
0001
0001
1000
,
0110
0100
0010
0110
,
0000
1001
0000
0101
,
0000
1000
0001
1000
,
0100
0000
1000
0100
1000
0000
1001
0000
,
0000
0000
0110
0000
1000
0001
0010
0000
,
0000
0000
1001
0000
0010
0100
0001
0000
,
0000
1000
1001
0001
,
1001
0100
1001
0000
,
1001
0010
1001
0110
,
0000
1100
0000
0011
,
1001
0000
0110
0000
,
2002
0000
0000
0000
,
0000
0000
0000
0000
,
0000
0000
0000
0000
,
0000
0000
0000
3003
,
1000
0000
0000
0001
0000
0000
0100
0000
0010
0000
0000
1000
0000
0000
0100
0000
0110
0000
0000
0010
0000
0000
0001
0000
0100
0000
0000
0010
0000
0000
1000
0000
,
1100
0000
0000
0100
0000
0000
1000
0000
0001
0000
0000
0010
0000
0000
0001
0000
0101
0000
0000
0100
0000
0000
0010
0000
1000
0000
0000
0001
0000
0000
0100
0000
,
0010
1010
0000
1000
,
1100
0000
0100
0110
,
0000
0010
0011
0001
,
1001
0100
0010
0100
,
0010
0110
0000
0100
,
0101
0000
0001
0011
,
0000
0010
0110
0100
,
1100
1000
1001
0010
,
0101
0000
0010
0110
,
0000
1000
0001
0100
,
0110
0000
0001
1001
,
0000
0110
0010
0001
,
0011
0000
0010
1010
,
0000
0110
0000
0022
,
0033
0220
0330
2020
,
3030
2002
3003
0010
,
1000
0010
0001
0010
,
1000
0000
0001
0110
,
0000
1000
0010
0101
,
0000
1000
0001
1000
,
0010
0110
0010
0110
,
1100
0000
0100
0011
,
0000
1000
0001
1010
,
0000
0010
0100
0010
,
1001
0000
0010
0110
,
0000
0100
0110
0000
,
1001
0000
1010
0101
,
0000
0100
1001
0000
,
2002
3003
0220
0330
,
2002
3003
0100
0010
,
1001
0010
0100
1001
,
0000
1000
0001
0100
,
0001
1000
0010
1000
,
0000
1001
0001
0010
,
0001
0100
0010
0100
,
0000
0101
0100
0010
,
0001
0010
1000
0100
,
0000
0011
0001
1000
,
0100
0000
0000
0110
0000
0000
0001
0000
,
2002
3003
0000
1000
,
1001
0000
0000
1100
0000
0000
1001
0000
,
0000
0000
1000
0100
0010
0000
0001
0000
,
0011
0000
0000
1001
0000
0000
0110
0000
,
0101
0000
0000
1001
0000
0000
1100
0000
,
0110
0000
0000
0101
0000
0000
1100
0000
,
1001
0000
0000
0101
0000
0000
0011
0000
,
1001
0000
0000
0110
0000
0000
1100
0000
,
1001
0000
0000
0101
0000
0000
0110
0000
,
2002
0000
0000
0000
,
3003
0000
0000
0000
;
