#TITLE:Stardust;
#SUBTITLE:(raw mix);
#ARTIST:Karoly & Monica;
#TITLETRANSLIT:;
#SUBTITLETRANSLIT:;
#ARTISTTRANSLIT:;
#CREDIT:;
#BANNER:Stardust.png;
#BACKGROUND:Stardust-bg.png;
#LYRICSPATH:;
#CDTITLE:!hirdd.png;
#MUSIC:Stardust.mp3;
#OFFSET:-0.160;
#SAMPLESTART:61.874;
#SAMPLELENGTH:13.699;
#SELECTABLE:YES;
#BPMS:0.000=140.010;
#STOPS:;
#BGCHANGES:;

//---------------dance-single - MANIAC (HIRYUU)----------------
#NOTES:
     dance-single:
     MANIAC (HIRYUU):
     Hard:
     10:
     0.837,0.916,0.063,0.412,0.717:
0000
0000
0000
0000
,
0000
0000
0000
0000
,
0000
0000
0000
0000
,
0000
0000
0000
0000
,
0100
0010
1000
0010
0100
0001
0100
0010
,
1000
0000
0100
0000
1000
0000
0010
0000
0100
0000
0001
0000
1000
0001
1000
0000
,
1001
1000
0010
0100
0001
0010
0100
1000
,
0010
0000
1000
0000
0100
0000
0010
0000
0100
0000
1000
0000
0100
0010
0100
0000
,
0110
0001
1000
0100
0001
1000
0001
0100
,
1000
0000
0100
0000
0001
0000
0010
0000
0001
0000
1000
0000
0001
0010
0001
0000
,
0101
0001
0100
0010
0100
0001
1000
0010
,
1000
0000
0100
0000
0010
0000
0100
0000
1000
0000
0001
0000
1000
0100
1000
0000
,
1010
0000
0110
0000
0100
0001
0100
0000
,
0010
0000
1000
0000
0010
0000
0001
0000
0010
0000
0100
0000
0010
1000
0010
0000
,
0110
0000
0101
0000
0010
1000
0010
0000
,
0100
0000
0001
0000
0100
0000
1000
0000
0100
0000
0010
0000
0100
0001
0100
0000
,
0001
0000
0100
0000
0010
0000
1000
0010
0100
0000
0001
0000
0100
0000
0010
0000
,
1000
0000
0100
0000
0010
0000
0001
0100
0010
0000
1000
0000
0010
0100
0010
0000
,
1000
0000
0100
0000
0010
0000
0001
0010
0100
0000
1000
0000
0010
0000
1000
0000
,
0100
0000
0010
0000
0001
0000
0100
0010
1000
0000
0001
0000
1000
0001
1000
0000
,
0001
0000
0100
0001
0100
0000
0001
0100
0001
0000
0100
0000
0010
0000
1000
0000
,
0010
0000
1000
0100
1000
0000
0100
1000
0100
0000
1000
0000
0001
0000
0100
0000
,
0010
0000
0100
0010
0100
0000
0010
0100
0010
0000
0100
0000
0001
0000
1000
0000
,
0100
0000
0010
0100
0010
0000
0100
0010
0100
0000
1000
0000
0001
0000
0010
0000
,
0100
0000
0010
0001
1000
0000
0100
0000
1000
0000
0001
0000
1000
0010
0100
0000
,
0001
0000
1000
0100
1000
0000
0100
1000
0100
0000
0010
0000
0001
0100
0010
0000
,
1000
0000
0010
0100
0001
0000
0100
0000
0001
0000
0010
0000
0100
1000
0010
0000
,
0100
0000
0001
0010
0001
0000
0010
0001
0010
0000
0100
0000
1000
0010
0100
0000
,
0001
0000
1000
0010
1000
0000
0010
0000
0100
0000
0001
0100
0001
0000
0100
0000
,
0010
0000
1000
0100
1000
0000
0001
0000
0100
0000
0010
0000
1000
0001
1000
0000
,
0010
0000
0100
0001
0100
0000
0010
0000
1000
0000
0010
1000
0010
0000
0100
0000
,
0001
0000
0100
0010
0100
0000
0001
0000
1000
0000
0100
0000
1000
0010
1000
0000
,
0001
0000
1000
0000
0010
0100
0010
0000
0100
0000
0001
0000
0100
0010
0100
0000
,
0001
0000
1000
0000
0001
1000
0001
0000
1000
0100
1000
0000
0001
0100
0001
0000
,
1000
0001
1000
0001
1000
0001
1000
0001
1000
0001
1000
0001
1000
0001
1000
0001
,
1000
0001
1000
0001
1000
0001
1000
0001
1000
0001
1000
0001
1000
0001
1000
0001
,
1000
0000
0010
0000
0100
0000
0001
0100
0000
0001
0100
0000
0010
1000
0010
0000
,
0100
0001
1000
0010
1000
0000
0100
0010
0000
0001
1000
0000
0010
0100
0001
0000
,
0010
0000
0100
0000
1000
0000
0010
0100
0000
0010
0100
0000
0001
0010
0100
0000
,
0010
0001
0100
0001
0010
0000
0100
1000
0000
0010
0100
0000
0001
0010
0100
0000
,
1000
0001
1000
0001
0100
0000
0010
1000
0000
1000
0001
0000
0010
0100
1000
0000
,
0010
0100
0001
0100
0010
0000
1000
0010
0000
0010
0100
0000
0001
0010
0100
0000
,
1000
0001
1000
0001
0100
0000
0010
0100
0000
0001
1000
0000
0100
0010
0001
0000
,
1000
0010
1000
0100
1000
0000
0010
0100
0000
0001
0010
0000
0100
1000
0001
0000
,
1000
0010
1000
0010
0100
0001
0100
0000
0010
0100
0010
0000
1000
0001
1000
0000
,
0010
0100
0010
0100
1000
0010
1000
0000
0001
0010
0001
0000
0100
1000
0100
0000
,
0001
1000
0001
1000
0010
0100
0010
0000
1000
0100
1000
0000
0010
0001
0010
0000
,
0100
0010
0100
0010
1000
0001
1000
0000
0100
0010
0100
0000
1000
0001
1000
0000
,
0001
1000
0010
0100
0001
0000
0010
0100
0001
0100
0010
0000
0001
1000
0100
0000
,
1000
0100
1000
0100
0010
0000
0100
1000
0001
1000
0010
0000
0100
0010
0001
0000
,
0010
0100
0010
0100
0010
0100
0010
0100
0010
0100
0010
0100
0010
0100
0010
0100
,
0010
0100
0010
0100
0010
0100
0010
0100
0010
0100
0010
0100
0010
0100
0010
0100
,
0010
1000
0001
0100
0002
0000
0203
0000
0320
0000
2030
0000
3200
0000
0302
0000
,
0203
2300
3020
0032
0203
2300
3002
1003
,
0010
0100
0001
0010
0200
0000
2300
0000
3200
0000
0302
0000
0203
0000
2300
0000
,
3200
0302
0023
2030
3200
0302
2003
3001
,
0100
0010
1000
0001
0020
0000
0230
0000
0302
0000
2003
0000
3020
0000
0230
0000
,
0302
2003
3200
0302
0023
2030
3002
1003
,
0001
1000
0010
0100
0020
0000
0230
0000
0302
0000
2003
0000
3020
0000
0230
0000
,
0302
0203
2300
3020
0032
2003
3002
1003
,
0010
0100
0001
0100
0001
0000
1000
0000
0010
0000
0100
0000
0001
0000
1000
0000
,
0010
0100
0010
1000
0100
0000
1000
0000
0010
0000
0100
0000
0001
0000
1000
0000
,
0010
0100
0001
1000
0010
0000
0100
0000
0001
0000
0010
0000
1000
0000
0010
0000
,
0001
0100
0010
1000
0100
0000
0010
0000
0001
0000
0010
0000
0100
0000
1000
0000
,
0001
0100
0010
0100
0010
0000
0100
0000
0001
0100
0001
0010
0001
0000
1000
0000
,
0010
0100
0010
1000
0100
0000
1000
0000
0010
0100
0001
0010
0100
0000
1000
0000
,
0001
0100
0010
0100
0001
0010
0100
1000
0010
0100
0010
1000
0100
0010
0001
1000
,
0010
0100
0001
0010
0100
0010
0001
1000
0010
0100
1000
0100
0001
0010
0100
1000
,
1001
0000
0000
0000
;

//---------------dance-single - SMANIAC (DD)----------------
#NOTES:
     dance-single:
     SMANIAC (DD):
     Challenge:
     9:
     0.516,0.673,0.301,0.158,0.277:
0000
0000
0000
0000
,
0000
0000
0000
0000
,
0000
0000
0000
0000
,
0000
0000
0000
0000
,
1000
0000
0000
0000
1000
0100
0000
0100
0000
0000
0000
0000
0100
0000
0010
0000
,
0001
0000
0000
0000
0001
0100
0000
0100
0000
0000
0000
0000
0100
0000
0010
0000
,
1000
0000
0000
0000
1000
0100
0000
0100
0000
0000
0000
0000
0100
0000
0010
0000
,
0001
0000
0000
0000
0001
0100
0000
0100
0000
0000
0000
0000
0100
0000
0010
0000
,
1000
0000
0000
0000
0001
1000
0000
1000
0001
0000
0010
0000
0000
0000
0010
0000
,
0001
0000
0000
0000
1000
0001
0000
0001
1000
0000
1000
0000
0000
0000
1000
0000
,
0001
0010
0100
1000
0001
0100
0010
1000
,
0011
0000
0000
0110
0000
0000
0110
0000
0000
1100
0000
0000
1001
0000
0000
0000
,
1000
0100
0001
0100
0010
1000
0010
0001
,
1000
0000
0010
0000
0100
0000
0001
0000
1000
0000
0100
0000
0010
0001
0010
0000
,
0001
0100
1000
0100
0010
0001
0010
1000
,
0001
0000
0100
0000
0010
0000
1000
0000
0001
0000
0010
0000
0100
1000
0100
0000
,
1000
0010
0100
0101
,
0001
0010
0100
1100
,
1000
0100
1000
0100
0010
0001
0010
0001
,
0100
0000
0001
0000
0100
0000
0001
0000
1000
0001
1000
0001
1000
0001
1000
0000
,
0001
0000
0000
0000
0010
0000
0000
0000
0100
1000
0000
0001
0100
0000
0000
0000
,
1000
0000
0100
0000
0010
0000
0001
0000
1000
0100
1000
0000
0001
0100
0001
0000
,
1000
0000
0000
0000
0100
0000
0000
0000
1000
0100
0000
0010
0001
0000
0000
0000
,
0100
0000
0010
0000
1000
0000
0001
0000
1000
0100
1000
0000
0001
0100
0001
0000
,
1000
0100
0001
0000
0001
0100
1000
0000
,
0001
0000
0100
0000
0010
0000
0100
0000
0001
1000
0001
0000
0001
0100
0001
0000
,
1000
0010
0100
0000
0010
0100
0001
0000
,
1000
0000
0010
0000
0100
0000
0001
0000
1000
0001
1000
0000
1000
0100
1000
0000
,
0001
0100
1000
0100
0001
0100
1000
0100
,
0001
0000
0000
0010
0000
0000
0100
0000
0000
1000
0000
0000
1001
0000
0001
0000
,
1000
0100
0001
0100
1000
0100
0001
0100
,
1000
0000
0000
0010
0000
0000
0100
0000
0000
0001
0000
0000
1001
0000
1000
0000
,
0001
0010
0100
1000
0010
0100
0001
0010
,
0100
0000
0000
1100
0000
0000
0101
0000
0000
0001
0000
0000
1000
0000
0001
0000
,
1000
0010
0100
0001
0010
0100
1000
0010
,
0100
0000
0000
0101
0000
0000
1100
0000
0000
0100
0000
0000
1000
0000
0000
0000
,
0002
0000
0000
0000
0100
0000
1003
0010
0000
0100
0001
0000
0000
0000
0000
0000
,
2000
0000
0000
0000
0100
0000
3001
0010
0000
0100
1000
0000
0000
0000
0000
0000
,
0020
0000
0000
0000
0001
0000
0130
0001
0000
1000
0010
0000
0000
0000
0000
0000
,
0200
0000
0000
0000
1000
0000
0310
1000
0000
0001
0100
0000
0000
0000
0000
0000
,
2000
0000
0000
0000
0010
0000
0000
0001
0000
0000
0100
0000
3100
0000
0000
0000
,
0020
0000
0000
0000
0001
0000
0000
0100
0000
0000
1000
0000
1030
0000
0000
0000
,
0002
0000
0000
0000
0100
0000
0000
1000
0000
0000
0010
0000
0013
0000
0000
0000
,
0200
0000
0000
0000
1000
0000
0000
0010
0000
0000
0001
0000
0301
0000
0000
0000
,
1100
0101
0011
0110
,
0011
0101
1100
1001
,
0101
1100
1010
0110
,
1010
1100
0101
1001
,
1000
0100
0010
0001
0100
0010
1000
0001
,
0010
0100
1000
0001
0100
0000
0110
0000
,
0001
0100
0010
1000
0100
0010
0001
1000
,
0010
0100
0001
0010
0100
0000
0110
0000
,
2000
0000
3200
0000
,
0320
0000
0000
0000
0031
0000
0000
0010
,
0001
1000
0002
0000
0000
0000
0000
0000
0203
0000
0000
0000
0000
0000
0000
0000
,
0320
0000
0000
0000
1030
0000
0000
0010
,
1000
0001
2000
0000
0000
0000
0000
0000
3200
0000
0000
0000
0000
0000
0000
0000
,
0320
0000
0000
0000
0130
0000
0000
1000
,
0010
0100
0020
0000
0000
0000
0000
0000
0230
0000
0000
0000
0000
0000
0000
0000
,
0302
0000
0000
0000
0013
0000
0000
0001
,
0100
0010
0100
0000
0000
0000
0000
0000
0001
0100
0001
0000
0000
0000
0000
0000
,
1000
0100
1000
0000
0000
0000
0000
0000
0100
0010
0100
0000
0000
0000
0000
0000
,
1000
0001
1000
0000
0000
0000
0000
0000
0001
0010
0001
0000
0000
0000
0000
0000
,
1000
0000
0000
1100
0000
0000
0110
0000
0000
0011
0000
0000
0001
0000
1000
0000
,
0101
0000
0110
0000
,
1100
0000
1001
0000
,
1000
0010
0100
0001
1000
0010
0100
0001
,
1000
0001
1000
0001
1000
0001
1000
0001
1000
0001
1000
0001
1000
0001
1000
0001
,
1000
0000
0000
0000
;

//---------------dance-single - TRICKY (HIRYUU)----------------
#NOTES:
     dance-single:
     TRICKY (HIRYUU):
     Medium:
     7:
     0.423,0.458,0.127,0.048,0.032: // measure 1
0000
0000
0000
0000
,  // measure 2
0000
0000
0000
0000
,  // measure 3
0000
0000
0000
0000
,  // measure 4
0000
0000
0000
0000
,  // measure 5
1000
0100
1000
0100
,  // measure 6
1000
0001
0100
0000
0010
0000
0100
0000
,  // measure 7
0001
0010
0001
0010
,  // measure 8
0001
1000
0010
0000
0100
0000
0010
0000
,  // measure 9
1000
0001
0100
0000
0010
0000
0100
0000
,  // measure 10
0001
0010
0100
0000
1000
0000
0010
0000
,  // measure 11
1000
0100
0001
0000
0100
0000
1000
0000
,  // measure 12
0001
0100
1000
0000
0100
0000
0001
0000
,  // measure 13
1000
1000
0010
0010
,  // measure 14
0100
0001
0100
0001
0100
0001
0101
0000
,  // measure 15
0001
0001
0010
0010
,  // measure 16
0100
1000
0100
1000
0100
1000
1100
0000
,  // measure 17
1000
0100
0001
0000
0001
0100
1000
0000
,  // measure 18
0100
0001
1000
0001
0100
0001
1000
0000
,  // measure 19
0010
0001
0100
0000
0100
0001
0010
0000
,  // measure 20
0100
0010
1000
0010
0100
0010
1000
0000
,  // measure 21
0010
0001
0100
0000
0010
1000
0100
0000
,  // measure 22
0010
0000
0001
0000
1000
0100
0010
0000
,  // measure 23
0001
0100
0010
0000
1000
0100
0010
0000
,  // measure 24
0001
0000
0100
0000
0010
1000
0100
0000
,  // measure 25
1000
0001
1000
0000
0001
1000
0001
0000
,  // measure 26
0100
0010
1000
0001
0100
0001
0010
0000
,  // measure 27
0100
0010
0100
0000
0010
0100
0010
0000
,  // measure 28
0100
0010
0001
0100
0010
1000
0100
0010
,  // measure 29
0002
1003
2000
3001
,  // measure 30
0002
0000
1003
0000
1000
0001
1001
0000
,  // measure 31
0200
0310
0020
0130
,  // measure 32
0200
0000
0310
0000
0010
0100
0110
0000
,  // measure 33
1000
0001
1001
0000
0001
1000
1001
0000
,  // measure 34
0100
0010
0110
0000
0010
0100
0110
0000
,  // measure 35
1000
0100
0010
0001
0100
0010
1000
0100
,  // measure 36
0010
0001
0010
0100
1000
0010
0100
0001
,  // measure 37
1000
0000
0001
0000
1000
0000
0000
0010
0000
0000
0100
0000
1100
0000
0000
0000
,  // measure 38
0010
0000
0100
0000
0010
0000
0000
0100
0000
0000
0010
0000
0101
0000
0000
0000
,  // measure 39
0001
0000
0100
0000
1000
0000
0000
0100
0000
0000
0001
0000
0101
0000
0000
0000
,  // measure 40
0001
0000
0010
0000
1000
0000
0000
0010
0000
0000
0001
0000
0011
0000
0000
0000
,  // measure 41
1000
0000
0001
0000
1000
0000
0000
0001
0000
0000
1000
0000
1001
0000
0000
0000
,  // measure 42
0010
0000
0100
0000
0010
0000
0000
0100
0000
0000
0010
0000
0110
0000
0000
0000
,  // measure 43
1000
0000
0100
0000
0001
0000
0000
1000
0000
0000
0100
0000
0101
0000
0000
0000
,  // measure 44
0001
0000
0100
0000
1000
0000
0000
0001
0000
0000
0100
0000
1100
0000
0000
0000
,  // measure 45
0001
0100
0001
0010
0001
0100
0001
0000
,  // measure 46
1000
0010
1000
0100
1000
0010
1000
0000
,  // measure 47
0100
0010
0100
0001
0100
0010
0100
0000
,  // measure 48
0010
0100
0010
1000
0010
0100
0010
0000
,  // measure 49
1000
0100
1000
0010
1000
0001
1000
0000
,  // measure 50
0001
0010
0001
0100
0001
1000
0001
0000
,  // measure 51
0100
0001
0100
0010
0100
1000
0100
0000
,  // measure 52
0010
1000
0010
0100
0010
0001
0010
0000
,  // measure 53
1000
0000
1000
0000
,  // measure 54
1000
0000
0000
0000
1000
0000
0000
1000
,  // measure 55
0001
0000
0001
0000
,  // measure 56
0001
0000
0000
0000
0001
0000
0000
0001
,  // measure 57
0100
0000
0100
0000
,  // measure 58
0100
0000
0000
0000
0100
0000
0000
0100
,  // measure 59
0010
0000
0010
0000
,  // measure 60
0010
0000
0000
0000
0010
0000
0000
0010
,  // measure 61
1000
1000
0001
0001
,  // measure 62
0100
0000
0100
0000
0010
0000
0010
0100
,  // measure 63
0001
0001
0100
0100
,  // measure 64
0010
0000
0010
0000
1000
0000
1000
0010
,  // measure 65
1000
0100
1000
0000
0100
1000
0100
0000
,  // measure 66
0010
0001
0010
0000
0001
0010
0001
0000
,  // measure 67
1000
0001
1000
0001
1000
0001
1000
0001
,  // measure 68
0100
0010
0100
0010
0100
0010
0100
0010
,  // measure 69
0100
0000
0000
0000
;

//---------------dance-single - BASIC (DD)----------------
#NOTES:
     dance-single:
     BASIC (DD):
     Easy:
     4:
     0.266,0.350,0.158,0.127,0.000:
0000
0000
0000
0000
,
0000
0000
0000
0000
,
0000
0000
0000
0000
,
0000
0000
0000
0000
,
1000
0100
1000
0100
,
0010
0001
0010
0001
,
0100
0001
0100
0001
,
0010
1000
0010
1000
,
1001
0000
0010
0000
,
0100
0000
1001
0000
,
1000
0000
0110
0000
,
0001
0000
0110
0000
,
1000
0100
0001
0010
,
0001
0100
1000
1000
,
0001
0100
1000
0010
,
1000
0100
0001
0001
,
1000
0010
0001
0100
,
0001
0010
1000
1000
,
0001
0010
1000
0100
,
1000
0010
0001
0001
,
1000
0100
0001
1000
,
0010
0001
1001
1001
,
0001
0100
1000
0001
,
0010
1000
1001
1001
,
1000
0100
1000
0100
,
0001
0100
0001
0100
,
0001
0010
0001
0010
,
1000
0010
1000
0010
,
1000
0101
1000
0101
,
0020
0000
0000
0030
,
0001
1100
0001
1100
,
0020
0000
0000
0030
,
1000
0011
1000
0011
,
0200
0000
0000
0300
,
0001
1010
0001
1010
,
0200
0000
0000
0300
,
1000
0000
0001
0100
0000
0000
0000
0000
,
0100
0000
0001
1000
0000
0000
0000
0000
,
0001
0000
1000
0100
0000
0000
0000
0000
,
0100
0000
1000
0001
0000
0000
0000
0000
,
1000
0010
0001
0100
,
1000
0010
0001
0100
,
1000
0010
0001
0100
,
1000
1000
0001
0001
,
1000
0100
0010
0001
,
1000
0010
0100
0001
,
0010
0100
1000
0001
,
0100
0010
1000
0100
,
0010
0001
1000
0010
,
0100
0001
0010
0100
,
1000
0001
0100
0010
,
1001
0000
0110
0000
,
2000
0000
0000
0000
,
3200
0000
0000
0000
,
0302
0000
0000
0000
,
0203
0000
0000
0000
,
2300
0000
0000
0000
,
3020
0000
0000
0000
,
0032
0000
0000
0000
,
0023
0000
0000
0000
,
1030
2200
0000
0300
,
0010
0000
3001
0000
,
0001
0202
0000
0300
,
0010
0000
1003
0000
,
1000
0000
0010
0000
,
0100
0000
0001
0000
,
1000
0010
0100
0001
,
1000
0100
0010
0001
1000
0010
0100
0001
,
1000
0000
0000
0000
;
