#TITLE:Sinful Rose;
#SUBTITLE:[Disgaea 2];
#ARTIST:Yoko;
#TITLETRANSLIT:;
#SUBTITLETRANSLIT:;
#ARTISTTRANSLIT:;
#CREDIT:;
#BANNER:rose.png;
#BACKGROUND:rose-bg.png;
#LYRICSPATH:;
#CDTITLE:!hiryuu.png;
#MUSIC:rose.ogg;
#OFFSET:0.000;
#SAMPLESTART:48.262;
#SAMPLELENGTH:13.660;
#SELECTABLE:YES;
#BPMS:0.000=140.950;
#STOPS:111.500=0.639
;
#BGCHANGES:;

//---------------dance-single - MANIAC----------------
#NOTES:
     dance-single:
     MANIAC:
     Hard:
     8:
     0.506,0.543,0.303,0.291,0.078: // measure 1
0000
0000
0000
0000
,  // measure 2
0000
0000
0000
0000
0000
2002
0000
0000
,  // measure 3
0000
3003
0000
0000
0000
1010
0000
0110
,  // measure 4
0000
0011
0000
0001
0100
0001
1000
0010
,  // measure 5
0100
0001
0100
0000
0000
1010
0000
0110
,  // measure 6
0000
0011
0000
0010
0100
0001
0100
0001
,  // measure 7
0010
0000
0100
0000
0000
0110
0000
0000
0000
0000
0110
0000
0000
0000
1001
0000
,  // measure 8
0000
1010
0000
0001
1000
0001
1000
0000
,  // measure 9
0000
0000
0001
0000
1000
0000
0001
0000
0100
0000
0000
0010
0000
0000
0100
0000
,  // measure 10
0001
0000
0000
1000
0000
0000
0001
0000
0000
0000
1001
0000
0000
0000
0000
0000
,  // measure 11
1000
0001
0000
0000
1000
0001
0010
0001
,  // measure 12
0100
0010
0000
1000
0000
0010
0100
0001
,  // measure 13
0000
0010
0001
0100
0010
0000
1000
0010
,  // measure 14
0100
0001
0010
0001
0000
0100
0010
1000
,  // measure 15
0000
0101
0000
0000
0010
0001
0100
0010
,  // measure 16
1000
0001
0000
1001
0000
1000
0010
0100
,  // measure 17
0000
0010
0100
0001
0010
0001
0100
0010
,  // measure 18
1000
0001
0010
0100
0000
1000
0010
0100
,  // measure 19
0000
0000
0001
0000
0010
0000
0100
0000
1000
0000
0000
0001
0000
0000
1000
0000
,  // measure 20
0000
0010
0100
0001
0010
0000
0001
0100
,  // measure 21
0000
0010
0000
1000
0000
0010
0100
0001
,  // measure 22
0010
0000
0000
0100
0000
0000
1000
0000
0000
0000
0100
0000
0001
0000
0100
0000
,  // measure 23
1000
0000
0100
0000
0001
0100
0000
0000
1000
0000
0010
0000
0001
0000
0010
0000
,  // measure 24
1000
0000
0000
2000
0000
3100
0001
0100
,  // measure 25
1000
0001
0110
0011
,  // measure 26
0110
0000
1000
0001
0000
1000
0100
0010
,  // measure 27
0000
0100
0010
0001
0000
1000
0001
1000
,  // measure 28
0000
0010
0100
0010
0000
1100
0000
0011
,  // measure 29
2000
0000
3001
0010
0002
0000
1003
0100
,  // measure 30
2000
0000
3010
0100
0020
0000
0130
0000
,  // measure 31
0002
0000
1003
0100
2000
0000
3010
0100
,  // measure 32
0020
0000
0130
0001
0020
0000
0130
0000
,  // measure 33
0000
2000
0000
0000
0001
0000
3000
0000
,  // measure 34
0000
0002
0000
0000
1000
0000
0003
0000
,  // measure 35
0000
0000
0010
0000
0000
1000
0000
0000
0010
0000
0100
0000
0000
0000
0001
0000
,  // measure 36
1000
0000
0110
0000
1001
0000
0001
1000
,  // measure 37
0002
0000
0013
0100
2000
0000
3010
0100
,  // measure 38
0002
0000
1003
0001
2000
0000
3001
0000
,  // measure 39
2100
0000
3010
0100
0012
0000
0013
0100
,  // measure 40
2000
0000
0000
0000
3002
0000
0000
0000
1003
0000
0001
0000
0100
0000
0010
1000
,  // measure 41
0000
0100
0000
0001
0100
0000
1000
0000
,  // measure 42
0010
0000
0100
0001
0010
0000
0000
0110
,  // measure 43
0000
0000
0000
1000
0000
0000
0000
0010
0000
0000
0000
0100
0000
0000
0000
0001
0000
0000
0000
0010
0000
0000
0000
0100
,  // measure 44
0000
1000
0000
2002
0000
3003
0000
0000
,  // measure 45
0000
1000
0100
0010
0001
1000
0100
0010
,  // measure 46
0001
0100
0010
0100
0010
1000
0001
1000
,  // measure 47
0001
0000
1000
0000
0000
0001
0000
0000
0100
0000
0010
0000
0000
1000
0000
0000
,  // measure 48
0001
0000
0110
0000
0000
1000
0001
0000
,  // measure 49
0001
2000
0000
0000
0000
0001
0000
0000
,  // measure 50
0000
0001
0000
0000
0000
3001
0001
0001
,  // measure 51
1000
1000
1000
0010
0100
0010
2002
0000
,  // measure 52
3003
0000
0000
0000
;

//---------------dance-single - ITG EDIT----------------
#NOTES:
     dance-single:
     ITG EDIT:
     Edit:
     9:
     0.703,0.743,0.549,0.404,0.482:
0000
0000
0000
0000
,
0000
0000
0000
0000
0000
2002
0000
0000
,
3003
0000
MMMM
0000
0000
1100
0000
0110
,
0000
0000
0101
0000
0000
0000
0001
0100
0001
0100
0001
0100
0001
0000
0100
1000
,
0100
1000
0100
1000
0100
1000
0100
0000
0000
0000
1010
0000
0000
0000
0110
0000
,
0000
0000
0011
0000
0000
0000
0001
0010
0001
0010
0100
0010
0100
0010
1000
0100
,
1000
0000
0001
0000
0000
1001
0000
0000
0110
0000
1100
0000
0000
0000
1010
0000
,
0000
0000
0110
0000
0000
0000
0010
0100
0001
0010
0100
1000
0001
0000
0000
0M00
,
00M0
0001
1000
0001
0100
0010
1000
0001
2000
0000
0000
3200
0000
0000
0302
0000
,
2003
0000
0000
3200
0000
0000
0302
0000
0003
0000
1001
0000
0000
0000
0000
0000
,
2200
0011
3300
0000
0000
0010
0001
0100
,
0010
1000
0000
1001
0000
0001
0010
0100
,
0000
1000
0010
0100
0001
0100
1000
0100
,
0001
0000
0010
0000
1000
0000
0010
0000
0100
0000
1000
0000
0010
0000
0001
0010
,
0001
0000
1001
0000
0M00
00M0
0000
0000
1000
0000
0100
0000
0010
0000
0001
0000
,
0100
0010
0000
0110
0000
0001
0100
0010
,
1000
0000
0100
0000
1000
0000
0010
0000
0100
0001
0010
0000
0001
0000
0100
0010
,
1000
0000
0100
0000
0010
0001
0200
0000
0000
0300
0101
0000
0001
0000
0011
0M00
,
M000
0000
0001
0000
0100
0000
0010
0000
1000
0000
0000
0010
0100
0000
0001
0000
,
0000
0000
0010
0000
0100
0000
1000
0000
0001
0000
0000
1000
0001
0000
0010
0000
,
0100
0000
1000
0010
0100
0000
0020
0000
0000
0030
0100
M000
01M0
0000
010M
0000
,
01M0
0000
0000
0101
0000
0000
2002
0M00
0000
30M3
1000
0001
1000
0001
0010
0001
,
0010
0001
0100
0010
0100
0010
0000
0000
1000
0000
0100
0000
0001
0000
0100
0000
,
2020
0M00
3030
0000
0010
0000
0100
0000
0000
0000
0001
0000
0010
0000
0100
0000
,
2020
3M30
0000
0000
0200
0000
2300
0000
,
3020
0000
0032
1000
0003
0100
1000
0100
,
0001
0000
0001
0100
0000
1000
0010
0001
,
0000
0000
0001
0000
0010
0000
1000
0000
0000
0000
1001
0000
0000
0000
0220
0330
,
1MM0
0000
0001
0010
1000
0000
1000
0100
,
0001
0010
1000
0100
M001
0000
0010
0100
,
1000
0000
0010
0100
0001
0000
0010
0001
,
0100
1000
0010
0001
0100
0010
100M
0000
,
0000
2000
0000
0000
0200
0000
0000
0000
,
0000
0020
0000
0000
0002
0000
3333
0000
,
0000
0000
0001
0000
0000
0100
0000
0000
0010
0000
1000
0000
0000
0000
0001
0000
,
1000
0000
0000
0000
0001
1000
0001
0000
1001
0000
0100
0010
0100
0000
0110
0000
,
1001
0M00
00M0
0000
1000
0000
0010
0000
0001
0000
0000
0000
0001
0000
0010
0000
,
1000
0000
0100
0000
0001
0000
0010
0000
1000
0000
0000
0000
0001
0010
0100
0000
,
2000
0010
0010
3010
0200
0001
0001
0301
,
1001
0000
0000
0000
0110
0000
0000
0000
1000
0010
0100
0001
0010
0001
0100
0010
,
0000
1100
0000
0110
0011
0000
1001
0000
,
1010
0000
0010
0100
0001
0000
0010
0100
,
1000
0000
0000
0001
0000
0010
0000
0100
0000
1000
0000
0100
0000
0010
0000
0001
0000
0100
0000
0010
0000
1000
0000
0010
,
0000
0100
0000
0001
0000
0000
0000
0000
0M00
1001
00M0
0000
1000
0000
0000
0000
0000
0000
0010
0000
0000
0100
0000
0000
,
0001
0000
0000
0000
1000
0001
1000
0001
0100
0001
0100
0001
1000
0001
1000
0001
,
0100
0001
0100
0001
1000
0001
1000
0001
1000
0000
0100
0000
0010
0000
0001
0000
,
1000
0000
0001
0000
0000
0110
0000
0000
1100
0000
0101
0000
0000
1001
0000
0000
,
0110
0000
1001
0000
0000
0220
1001
0330
,
0000
0000
0000
1000
0000
0100
0000
0010
0000
0001
0000
0100
0000
0010
0000
1000
0000
0001
0000
0010
0000
0100
0000
1000
,
0000
0010
0000
0100
0000
0001
0000
1000
0000
0010
0000
0100
0000
0001
0000
0110
0000
0000
0100
0000
0000
1000
0000
0000
,
0110
0100
0001
0110
0100
1000
2222
0000
,
3333
0000
0000
0000
;

//---------------dance-single - SIMPLE----------------
#NOTES:
     dance-single:
     SIMPLE:
     Beginner:
     1:
     0.117,0.171,0.034,0.011,0.000:
0000
0000
0000
0000
,
0000
0000
0000
0000
,
0000
0000
0000
0000
,
0000
0000
0000
0000
,
0000
0000
0000
0000
,
0000
0000
0000
0000
,
0000
0000
0000
0000
,
0000
0000
0000
0000
,
0000
0000
0000
0000
,
0000
0000
0000
0000
,
0000
0000
1000
0000
,
0010
0000
0100
0000
,
0001
0000
1000
0000
,
1000
0000
1000
0000
,
0000
0000
0001
0000
,
0010
0000
0100
0000
,
1000
0000
0001
0000
,
0001
0000
0001
0000
,
0000
0000
1000
0000
,
0001
0000
1000
0000
,
0001
0000
0100
0000
,
0010
0000
0100
0000
,
0010
0000
1000
0000
,
0000
0000
0001
0000
,
0000
0000
0100
0000
,
0010
0000
1000
0000
,
0001
0000
0000
1000
0000
0000
0000
1000
,
0000
0000
0000
1000
0000
0000
0000
1000
,
0001
0000
0001
0000
,
0001
0000
0001
0000
,
0100
0000
0100
0000
,
0100
0000
0100
0000
,
0000
0010
0000
0000
0000
0000
0000
0000
,
0000
0010
0000
0000
0000
0000
0000
0000
,
1000
0000
1000
0000
,
1000
0000
1000
0000
,
0001
0000
0100
0000
,
0010
0000
1000
0000
,
0001
0000
0010
0000
,
0100
0000
1000
0000
,
0000
0001
0000
0000
0000
0000
0000
0000
,
1000
0000
0000
0000
,
0000
0001
0000
0000
0000
0001
0000
0000
,
0000
0001
0000
0000
0000
0000
0000
0000
,
1001
0000
0000
0000
,
0000
0000
0000
0000
,
0000
1000
0000
0000
0000
0001
0000
0000
,
0000
1001
0000
0000
0000
1001
0000
0000
,
0000
2000
0000
0000
0000
0000
0000
0000
,
0000
0000
0000
0000
0000
0001
0000
0000
,
0001
0000
0000
0001
0000
0000
3001
0000
;

//---------------dance-single - BASIC----------------
#NOTES:
     dance-single:
     BASIC:
     Easy:
     4:
     0.247,0.370,0.101,0.067,0.006:
0000
0000
0000
0000
,
0000
0000
0000
0000
,
0000
0000
0000
0000
0000
1000
0000
0001
,
0000
1000
0000
0000
0001
0000
0000
0000
,
0000
0000
0000
0000
0000
0100
0000
0010
,
0000
0100
0000
0000
0010
0000
0000
0000
,
0000
0000
1000
0000
0000
0001
0000
0000
0000
0000
1000
0000
0000
0000
0001
0000
,
0000
1000
0000
0010
0100
0010
0100
0000
,
0000
0000
0010
0000
,
0010
0000
0000
0000
0000
0100
0000
0000
,
0010
0100
0000
0000
0000
0000
0001
0000
,
0000
0010
0000
0100
,
0000
1000
0001
0100
,
0010
1000
0001
1000
,
0001
1000
0000
0000
0100
0000
0000
0000
,
0010
0000
0001
0000
,
1000
0000
0010
0100
,
0001
0000
1000
0001
0000
1000
0001
1000
,
0000
0000
0001
0000
,
0010
0000
0100
0000
,
1000
0000
0001
0000
,
1000
0000
0000
1001
0000
0000
0000
0000
,
1000
0000
0010
0100
,
0010
0000
1000
0001
,
1000
0000
0001
0000
,
1001
0000
1000
0000
,
1001
0000
0000
0001
0000
1000
0001
1000
,
0000
0001
1000
0001
0000
1000
0000
0002
,
1003
0000
1000
0000
,
1000
0000
0001
1000
0001
0000
0000
0000
,
0100
0000
0100
0000
,
0010
0010
0100
0110
,
0000
0001
0000
0000
0010
0000
0000
0100
,
0000
1000
0000
0000
0010
0000
0000
0100
,
0000
0001
0000
0010
0000
0100
0000
1000
,
0001
1001
0110
0000
,
0001
0000
0001
0000
,
0001
0000
1000
0001
1000
0000
0000
0000
,
0001
0000
1000
0000
,
2002
0000
3003
0000
,
0000
0010
0000
0100
0010
0000
0100
0000
,
0010
0000
0000
1000
0001
0000
0001
1000
,
0000
0010
0000
0000
0000
0010
0000
0000
,
0000
0010
0000
0220
0000
0000
0000
0330
,
1000
0100
0010
0001
,
0100
0010
1000
0100
,
0010
0001
0000
0000
0000
1000
0000
0000
,
0000
0000
1000
0000
0000
0001
1000
0000
,
0000
0002
0000
0000
0000
0000
0000
0000
,
0000
0000
0000
0000
0000
1003
0000
0000
,
0001
0000
0000
1000
0000
0000
1001
0000
;

//---------------dance-single - TRICKY----------------
#NOTES:
     dance-single:
     TRICKY:
     Medium:
     6:
     0.440,0.457,0.314,0.146,0.101:
0000
0000
0000
0000
,
0000
0000
0000
0000
,
0000
0000
0000
0000
0000
1001
0000
1001
,
0000
1001
0000
1000
0001
1000
0001
0000
,
0100
0010
0100
0000
0000
0110
0000
0110
,
0000
0110
0000
0010
0100
0010
0100
0001
,
1000
0000
0001
0000
0000
1001
0000
0000
0000
0000
1100
0000
0000
0000
0110
0000
,
0000
0101
0000
0001
0100
0001
0100
0000
,
0000
0000
0100
0000
1000
0000
0100
0000
2000
0000
0000
0001
0000
0000
0001
0000
,
3002
0000
0000
1000
0000
0000
1000
0000
0003
0000
1001
0000
0000
0000
0000
0000
,
0010
0110
0000
0000
0000
1000
0000
0100
,
0000
0010
0000
0001
0000
0100
0000
0010
,
0000
1000
0000
0001
0100
0010
0100
0010
,
1000
0100
0010
0001
0000
0001
0100
1000
,
0000
0110
0000
0000
0000
1000
0000
0100
,
0000
0010
0000
0001
0000
0100
0000
0010
,
0000
1000
0000
0001
0010
0100
0010
0001
,
1000
0010
0100
0010
0000
0100
0010
0100
,
0000
0000
0000
0000
0001
0000
0000
0000
1000
0000
0000
0001
0000
0000
0100
0000
,
0010
0000
1000
0000
0001
0000
0010
0000
0001
0000
0000
0100
0000
0000
0010
0000
,
0000
1000
0010
0100
0000
0001
0010
0100
,
1000
0000
0000
0010
0000
0000
0002
0000
0000
0000
0000
0000
0000
0000
0000
0000
,
0000
0000
0000
0003
0010
1000
0100
0001
,
0100
0000
0000
1000
0000
0001
1000
0001
,
1000
0000
0001
1000
,
0001
0000
1000
0001
0000
0100
0010
0100
,
0000
0001
0010
0100
0000
0010
0100
1000
,
0000
0001
1000
0001
0000
1001
0000
0110
,
1000
0000
0001
1000
0001
0000
1000
0001
,
1000
0000
0010
0100
0010
0000
0100
0000
,
0001
0000
1000
0010
1000
0000
0001
0100
,
0001
0000
1000
0100
0010
0001
0100
0010
,
0001
0020
0000
0000
2000
0000
0000
3030
,
0000
0200
0000
0000
0002
0000
0000
0303
,
0000
0000
0001
0000
0000
0100
0000
0000
1000
0000
0010
0000
0000
0000
0100
0000
,
0001
1000
1001
0000
,
0101
0000
0001
0100
0010
0000
1000
0100
,
0010
0000
0001
1000
0010
0000
1000
0000
,
1010
0000
0010
0100
0001
0000
0010
0100
,
1000
0000
0000
0000
0001
0000
0000
0000
1000
0000
0010
0000
1000
0000
0010
1000
,
0000
0001
0000
0100
0010
0000
1000
0000
,
0001
0000
0010
0100
1000
0000
0001
1000
,
0001
0000
0000
1000
0000
0001
0000
1000
0000
0001
0000
1000
0000
0001
0000
1000
0000
0001
0000
1000
0000
0001
0000
1000
,
0000
0001
0000
1000
0000
0000
0000
0000
0000
2002
0000
0000
0000
0000
0000
0000
0000
0000
0000
0000
0000
0000
0000
0000
,
0000
3003
0000
0000
0000
0000
0000
0000
,
0000
0000
0000
0000
,
0000
0000
1001
0000
0000
1000
0000
0000
0001
0000
0110
0000
0000
0010
0000
0000
,
0100
0000
1001
0000
0000
1000
1001
0000
,
0000
2002
0000
0000
0000
0000
0000
0000
,
0000
0003
0000
3000
0000
1001
0001
1000
,
1001
0001
1000
1001
0001
1000
2002
0000
,
3003
0000
0000
0000
;
