#TITLE:Safe Cracker;
#SUBTITLE:[TMNT 5 - Tournament Fighters];
#ARTIST:Konami (Uehara, Inoue, Ueko);
#TITLETRANSLIT:;
#SUBTITLETRANSLIT:;
#ARTISTTRANSLIT:;
#GENRE:;
#CREDIT:;
#BANNER:safecrak.png;
#BACKGROUND:safecrak-bg.png;
#LYRICSPATH:;
#CDTITLE:!hiryuu.png;
#MUSIC:safecrak.ogg;
#OFFSET:0.000;
#SAMPLESTART:5.621;
#SAMPLELENGTH:22.459;
#SELECTABLE:YES;
#BPMS:0.000=170.900;
#STOPS:;
#BGCHANGES:;
#KEYSOUNDS:;

//---------------dance-single - SMANIAC----------------
#NOTES:
     dance-single:
     SMANIAC:
     Challenge:
     13:
     1.000,0.000,0.199,0.234,1.000: // measure 1
0000
0000
0000
0000
,  // measure 2
0000
0000
0000
0000
,  // measure 3
0000
0000
0000
0000
,  // measure 4
0000
0000
1001
0110
,  // measure 5
2000
0000
3100
0010
0001
0010
0100
0010
0100
1000
0100
0010
0100
0001
0100
0010
,  // measure 6
1000
0010
0100
0001
0010
0001
0100
0010
0002
0000
0013
0100
1000
0100
0010
0100
,  // measure 7
2000
0000
3100
0010
0001
0010
0001
0100
0010
1000
0100
0010
0100
1000
0100
0010
,  // measure 8
0001
0010
0200
0000
1300
0100
0010
0001
0010
0001
0100
1000
0010
0100
1000
0100
,  // measure 9
0020
0000
0031
0010
0100
0010
1000
0010
0100
0001
0010
0001
0100
0010
1000
0100
,  // measure 10
1000
0010
0100
0001
0010
0001
0100
0010
1000
0100
1000
0010
0100
0001
0010
0100
,  // measure 11
2000
0000
0000
0000
3001
0000
1000
0001
1000
0000
0010
0000
0100
0010
0100
0000
0001
0000
0100
0001
0100
0000
1000
0000
0010
1000
0010
0000
1000
0000
0100
0000
,  // measure 12
0010
1000
0001
0100
0010
1000
0100
0010
0001
0100
0010
0001
0010
0100
1000
0001
,  // measure 13
1000
0001
1000
0001
0100
0010
1000
0001
1000
0001
0010
0100
1000
0001
1000
0001
,  // measure 14
0100
0010
1000
0001
1000
0001
0100
0010
1000
0100
0010
0001
0010
0100
1000
0100
,  // measure 15
0010
0001
1000
0010
0100
0001
1000
0100
0010
0001
1000
0010
0100
0001
0100
0010
,  // measure 16
0001
0010
0100
1000
0100
0010
1000
0010
0100
0001
0010
0100
1000
0001
0010
0200
,  // measure 17
0000
0000
1300
0100
0010
0001
0010
0001
0010
0100
1000
0100
1000
0100
0010
0001
,  // measure 18
0010
0001
0010
0100
0010
1000
0010
0100
1000
0100
0010
0100
0001
0010
0001
0100
,  // measure 19
0001
0010
0001
0100
0010
0001
0010
0100
0010
0100
1000
0100
0010
0001
0100
0010
,  // measure 20
0001
0010
0100
1000
0100
0010
0100
1000
0100
0010
0001
2000
0002
0000
0000
3003
,  // measure 21
0001
0000
1000
0010
0000
0100
0001
0010
0100
1000
0010
0100
0001
0010
0100
1000
,  // measure 22
0010
0100
0001
0010
0100
1000
0010
0100
1001
0000
0000
0000
0110
0000
0000
0000
,  // measure 23
1000
0000
0010
0100
0000
0001
1000
0100
0010
0001
0100
0010
1000
0100
0010
0001
,  // measure 24
0100
0010
1000
0100
0010
0001
0100
0010
1001
0000
0000
0000
0110
0000
0000
0000
,  // measure 25
0010
0000
0100
0001
0000
1000
0100
0010
0001
0010
0100
1000
0100
0010
0001
0010
,  // measure 26
0100
1000
0100
0010
0001
0010
0100
1000
0011
0000
0000
0000
1100
0000
0000
0000
,  // measure 27
1000
0000
0100
0010
0000
0001
0010
0100
1000
0100
0010
0001
0010
0100
1000
0100
,  // measure 28
0010
0001
0010
0100
1000
0100
0010
0001
1000
0001
1000
0000
0110
0000
1000
0001
,  // measure 29
2000
0000
3010
0100
0001
0010
0001
0100
1000
0010
0100
1000
0010
0100
0001
0010
,  // measure 30
0100
1000
0010
0100
0001
0100
0010
1000
0002
0000
0103
0010
1000
0001
0100
0010
,  // measure 31
2000
0000
3100
0010
0001
0010
0100
0001
1000
0100
0010
0001
1000
0010
0100
1000
,  // measure 32
0100
0010
0002
0000
0013
0100
0001
0010
0100
1000
0100
0010
1000
0001
0100
0010
,  // measure 33
0002
0000
0103
0010
1000
0010
0100
0001
0010
0100
0010
0001
0010
0100
1000
0100
,  // measure 34
0010
0100
1000
0100
0010
0001
0100
0010
0001
0100
0001
0100
0010
1000
0100
0010
,  // measure 35
0002
0000
0000
0000
0103
0000
0010
0100
0010
0000
1000
0000
0001
1000
0001
0000
0100
0000
0010
0100
0010
0000
1000
0000
0001
1000
0001
0000
0010
0000
0100
0000
,  // measure 36
0010
0100
0001
1000
0001
1000
0100
1000
0100
1000
0001
0010
0001
0010
1000
0100
,  // measure 37
0010
0001
0010
0001
1000
0100
0010
0001
0010
0001
0100
1000
0010
0001
0010
0001
,  // measure 38
1000
0100
0010
0001
0010
0001
1000
0100
1000
0001
0010
0001
0100
1000
0100
0010
,  // measure 39
0001
1000
0100
0010
0001
1000
0010
0100
0001
0010
0100
1000
0010
0100
0001
0100
,  // measure 40
0010
1000
0010
0100
0001
1000
0010
0100
0001
1000
0100
0010
0001
0010
0100
2000
,  // measure 41
0000
0000
3010
0100
0001
1000
0010
0100
0001
0010
0001
0100
0010
1000
0010
0100
,  // measure 42
0001
0010
0100
0001
0010
1000
0010
0100
0001
0010
0100
0001
1000
0010
1000
0100
,  // measure 43
1000
0010
1000
0100
1000
0010
1000
0100
0010
0001
0010
0100
1000
0010
0100
0001
,  // measure 44
0010
0100
0001
1000
0010
0100
1000
0010
0100
0001
1000
0002
2000
0000
0000
3003
,  // measure 45
1000
0000
0010
0100
0000
0001
0100
1000
0100
1000
0100
1000
0010
0100
0010
0100
,  // measure 46
0010
0100
0001
0010
0001
0010
0001
0010
1001
0000
0000
0000
0110
0000
0000
0000
,  // measure 47
0001
0000
0100
0010
0000
1000
0001
0010
0001
0010
0001
0010
0100
0010
0100
0010
,  // measure 48
0100
0010
1000
0100
1000
0100
1000
0100
1001
0000
0000
0000
0110
0000
0000
0000
,  // measure 49
0001
0000
0100
0010
0000
1000
0010
1000
0010
1000
0010
1000
0001
0100
0001
0100
,  // measure 50
0001
0100
0001
1000
0001
1000
0001
1000
0110
0000
0000
0000
1001
0000
0000
0000
,  // measure 51
0100
0000
0010
0001
0000
1000
0100
0001
0100
0001
0100
0001
1000
0010
1000
0010
,  // measure 52
1000
0010
0100
0010
0100
0010
0100
0010
1000
0001
0100
0000
0110
0000
0001
1000
,  // measure 53
2002
0000
3003
0000
;

//---------------dance-single - MANIAC----------------
#NOTES:
     dance-single:
     MANIAC:
     Hard:
     9:
     0.645,0.000,0.012,0.304,0.070: // measure 1
0000
0000
0000
0000
,  // measure 2
0000
0000
0000
0000
,  // measure 3
0000
0000
0000
0000
,  // measure 4
0000
0000
0000
0000
,  // measure 5
1000
0100
1000
0100
0010
0001
0010
0001
,  // measure 6
0100
0010
0100
0010
0200
0000
0310
0100
,  // measure 7
0020
0000
0130
0001
0010
0100
1000
0100
,  // measure 8
0010
0001
0010
0100
1000
0100
0010
0001
,  // measure 9
2000
0000
3010
0100
0001
0010
0100
1000
,  // measure 10
0010
0100
0001
0010
0100
1000
0010
0100
,  // measure 11
0001
0010
0001
0010
0001
0010
0001
0010
,  // measure 12
0100
1000
0010
0100
0001
0010
0100
1000
,  // measure 13
0001
0001
1000
0010
0010
0100
0001
0001
,  // measure 14
0010
0100
0100
1000
0001
1000
0001
1000
,  // measure 15
0010
0100
0001
1000
0100
0010
0001
1000
,  // measure 16
0010
0100
0001
1000
0100
0010
0001
2000
,  // measure 17
0000
3010
0100
0010
1000
0100
0010
0001
,  // measure 18
0100
0010
1000
0100
1000
0001
0010
0001
,  // measure 19
1000
0100
1000
0100
1000
0010
0100
0001
,  // measure 20
0010
0100
1000
0001
1000
0001
2002
3003
,  // measure 21
1000
0000
0000
0010
0000
0000
0100
0000
0010
0000
0100
0000
0010
0000
0100
0000
,  // measure 22
0010
0100
0010
0100
0020
0000
0230
0000
,  // measure 23
0301
0000
0000
1000
0000
0000
0001
0000
1000
0000
0001
0000
1000
0000
0001
0000
,  // measure 24
1000
0001
1000
0001
2000
0000
3002
0000
,  // measure 25
0103
0000
0000
0010
0000
0000
1000
0000
0100
0000
0010
0000
0001
0000
1000
0000
,  // measure 26
0100
0010
0001
1000
0002
0000
2003
0000
,  // measure 27
3001
0000
0000
0100
0000
0000
0010
0000
0100
0000
0001
0000
0010
0000
0100
0000
,  // measure 28
1000
0000
0010
0000
0100
0000
0001
0000
1000
0001
1000
0000
0001
0000
1000
0001
,  // measure 29
1000
0010
0100
0001
0010
0001
0100
0010
,  // measure 30
1000
0100
1000
0010
0200
0000
0301
0010
,  // measure 31
0002
0000
0103
0010
1000
0100
1000
0010
,  // measure 32
0100
0001
0010
0001
0100
0010
1000
0100
,  // measure 33
2000
0000
3010
0100
0001
0010
0001
0100
,  // measure 34
0001
1000
0010
0100
0010
1000
0001
0010
,  // measure 35
0100
1000
0100
1000
0100
1000
0100
1000
,  // measure 36
0010
0100
0001
0010
0100
1000
0010
0100
,  // measure 37
0001
0001
0100
0010
0010
1000
0100
0100
,  // measure 38
0010
0001
0001
1000
0001
1000
0010
0100
,  // measure 39
0010
1000
0100
0010
0001
0100
0010
1000
,  // measure 40
0010
0100
0001
0010
0001
0100
0010
2000
,  // measure 41
0000
3001
0010
0100
1000
0100
0010
0001
,  // measure 42
0010
0100
1000
0100
0010
0001
0100
0010
,  // measure 43
1000
0100
0010
0001
0010
0001
0100
0010
,  // measure 44
1000
0100
1000
0010
0100
0002
0020
0033
,  // measure 45
0100
0000
0000
1000
0000
0000
0001
0000
0010
0000
0100
0000
1000
0000
0100
0000
,  // measure 46
0010
0001
0010
0100
2000
0000
3020
0000
,  // measure 47
0130
0000
0000
0001
0000
0000
0100
0000
1000
0000
0100
0000
0001
0000
0100
0000
,  // measure 48
1000
0100
0001
0100
2000
0000
3200
0000
,  // measure 49
0301
0000
0000
0010
0000
0000
0001
0000
0010
0000
0100
0000
0010
0000
0001
0000
,  // measure 50
0100
0010
0001
0010
0200
0000
0302
0000
,  // measure 51
0013
0000
0000
0100
0000
0000
1000
0000
0100
0000
0010
0000
0001
0000
0001
0000
,  // measure 52
0010
0000
0100
0000
1000
0000
1000
0000
0010
0100
0010
0000
0100
0000
0010
0200
,  // measure 53
0020
0000
0330
0000
;

//---------------dance-single - TRICKY----------------
#NOTES:
     dance-single:
     TRICKY:
     Medium:
     6:
     0.331,0.000,0.105,0.023,0.000: // measure 1
0000
0000
0000
0000
,  // measure 2
0000
0000
0000
0000
,  // measure 3
0000
0000
0000
0000
,  // measure 4
0000
0000
0000
0000
,  // measure 5
1000
1000
0001
0001
,  // measure 6
0100
0000
0100
0000
0010
0100
0010
0000
,  // measure 7
1000
0100
0010
0001
,  // measure 8
0100
0010
1000
0100
,  // measure 9
0010
0010
0001
0001
,  // measure 10
0010
0000
0001
0000
0010
0001
0010
0000
,  // measure 11
0001
0001
0001
0001
,  // measure 12
1000
0100
1000
0000
0001
0010
0001
0000
,  // measure 13
0100
0100
0010
0010
,  // measure 14
1000
1000
0001
1000
,  // measure 15
0001
0010
0100
1000
,  // measure 16
0010
0100
0001
0010
,  // measure 17
0100
0100
0010
0010
,  // measure 18
0001
1000
0001
1000
,  // measure 19
0010
0010
0100
0100
,  // measure 20
0010
0100
0010
0100
,  // measure 21
0001
0000
0000
1000
0000
0000
0001
0000
,  // measure 22
0000
1000
0000
0000
0001
0000
1000
0000
,  // measure 23
0010
0000
0000
0100
0000
0000
0010
0000
,  // measure 24
0000
0100
0000
0000
0010
0000
0100
0000
,  // measure 25
0001
0000
0000
0010
0000
0000
0100
0000
,  // measure 26
0000
1000
0000
0000
0010
0000
0100
0000
,  // measure 27
0001
0000
0000
1000
0000
0000
0001
0000
,  // measure 28
0000
1000
0000
0000
0010
0000
0100
0000
,  // measure 29
0010
0010
0100
0100
,  // measure 30
0001
0000
0100
0000
0010
0100
0010
0000
,  // measure 31
1000
0010
0100
0010
,  // measure 32
1000
0000
0100
0000
1000
0010
1000
0000
,  // measure 33
0001
0001
1000
1000
,  // measure 34
0010
0010
0100
0100
,  // measure 35
0001
0001
0001
0001
,  // measure 36
1000
0100
1000
0000
0001
0010
0001
0000
,  // measure 37
0100
0010
1000
0001
,  // measure 38
0100
0010
1000
0001
,  // measure 39
1000
0100
0010
0001
,  // measure 40
0001
0010
0100
1000
,  // measure 41
0001
0010
0001
0010
,  // measure 42
0100
1000
0100
1000
,  // measure 43
0010
0100
0010
0100
,  // measure 44
0001
1000
0001
0000
1000
0001
1000
0000
,  // measure 45
0001
0000
0000
0100
0000
0000
0010
0000
,  // measure 46
0000
1000
0000
0000
1001
0000
1001
0000
,  // measure 47
0010
0000
0000
0100
0000
0000
0001
0000
,  // measure 48
0000
1000
0000
0000
0110
0000
0110
0000
,  // measure 49
0001
0000
0000
0100
0000
0000
0010
0000
,  // measure 50
0000
1000
0000
0000
1001
0000
1001
0000
,  // measure 51
0010
0000
0000
0100
0000
0000
1000
0000
,  // measure 52
0000
0001
0000
0000
0110
0000
1001
0000
,  // measure 53
0220
0000
0330
0000
;

//---------------dance-single - BASIC----------------
#NOTES:
     dance-single:
     BASIC:
     Easy:
     3:
     0.229,0.000,0.012,0.000,0.000: // measure 1
0000
0000
0000
0000
,  // measure 2
0000
0000
0000
0000
,  // measure 3
0000
0000
0000
0000
,  // measure 4
0000
0000
0000
0000
,  // measure 5
1000
0000
1000
0000
,  // measure 6
0001
0001
0001
0000
,  // measure 7
0100
0000
0100
0000
,  // measure 8
0010
0010
0010
0000
,  // measure 9
1000
0000
0100
0000
,  // measure 10
0010
0010
0010
0000
,  // measure 11
0001
0000
0001
0000
,  // measure 12
0001
0000
0001
0000
,  // measure 13
1000
0000
1000
0000
,  // measure 14
0001
0000
0001
0000
,  // measure 15
1000
0001
1000
0001
,  // measure 16
0100
0010
0100
0010
,  // measure 17
1000
0000
0100
0000
,  // measure 18
0010
0000
0001
0000
,  // measure 19
1000
1000
0001
0001
,  // measure 20
1000
1000
0001
0001
,  // measure 21
1000
0000
1000
0000
,  // measure 22
1000
0000
1000
1000
,  // measure 23
0001
0000
0001
0000
,  // measure 24
0001
0000
0001
0001
,  // measure 25
0100
0000
0100
0000
,  // measure 26
0100
0000
0100
0100
,  // measure 27
0010
0000
0010
0000
,  // measure 28
0010
0000
0010
0010
,  // measure 29
1000
0001
1000
0001
,  // measure 30
0100
0010
0100
0000
,  // measure 31
0001
0010
0100
1000
,  // measure 32
0100
0010
0001
0000
,  // measure 33
1000
0100
1000
0000
,  // measure 34
0001
0010
0001
0000
,  // measure 35
1000
0000
0001
0000
,  // measure 36
0100
0000
0010
0000
,  // measure 37
1000
1000
0001
0001
,  // measure 38
1000
1000
0001
0000
,  // measure 39
0100
0100
0010
0010
,  // measure 40
0100
0100
0010
0000
,  // measure 41
1000
1000
0100
0100
,  // measure 42
1000
1000
0100
0000
,  // measure 43
0010
0001
0010
0001
,  // measure 44
0010
0010
0001
0000
,  // measure 45
1000
0000
0001
0000
,  // measure 46
1000
0001
1000
0000
,  // measure 47
0010
0000
0100
0000
,  // measure 48
0010
0100
0010
0000
,  // measure 49
1000
0000
0100
0000
,  // measure 50
0010
0001
0010
0000
,  // measure 51
0001
0000
0100
0000
,  // measure 52
0010
1000
0010
0000
,  // measure 53
1001
0000
0000
0000
;

//---------------dance-single - Blank----------------
#NOTES:
     dance-single:
     Blank:
     Beginner:
     1:
     0.107,0.000,0.012,0.000,0.000: // measure 1
0000
0000
0000
0000
,  // measure 2
0000
0000
0000
0000
,  // measure 3
0000
0000
0000
0000
,  // measure 4
0000
0000
0000
0000
,  // measure 5
1000
0000
0000
0000
,  // measure 6
0100
0000
0000
0000
,  // measure 7
0010
0000
0000
0000
,  // measure 8
0001
0000
0000
0000
,  // measure 9
1000
0000
0000
0000
,  // measure 10
0001
0000
0000
0000
,  // measure 11
1000
0000
1000
0000
,  // measure 12
1000
0000
1000
0000
,  // measure 13
0100
0000
0000
0000
,  // measure 14
0010
0000
0000
0000
,  // measure 15
0100
0000
0000
0000
,  // measure 16
0010
0000
0000
0000
,  // measure 17
0001
0000
0000
0000
,  // measure 18
0010
0000
0000
0000
,  // measure 19
0100
0000
0000
0000
,  // measure 20
0010
0000
0000
0000
,  // measure 21
0001
0000
1000
0000
,  // measure 22
0001
0000
0000
0000
,  // measure 23
1000
0000
0001
0000
,  // measure 24
1000
0000
0000
0000
,  // measure 25
0100
0000
0100
0000
,  // measure 26
0100
0000
0000
0000
,  // measure 27
0010
0000
0010
0000
,  // measure 28
0010
0000
0000
0000
,  // measure 29
0001
0000
0000
0000
,  // measure 30
0001
0000
0000
0000
,  // measure 31
1000
0000
0000
0000
,  // measure 32
1000
0000
0000
0000
,  // measure 33
0100
0000
0000
0000
,  // measure 34
0010
0000
0000
0000
,  // measure 35
0100
0000
0100
0000
,  // measure 36
0010
0000
0010
0000
,  // measure 37
0001
0000
0000
0000
,  // measure 38
1000
0000
0000
0000
,  // measure 39
0010
0000
0000
0000
,  // measure 40
0001
0000
0000
0000
,  // measure 41
0010
0000
0000
0000
,  // measure 42
1000
0000
0000
0000
,  // measure 43
0010
0000
0001
0000
,  // measure 44
0010
0000
1000
0000
,  // measure 45
1000
0000
0001
0000
,  // measure 46
1000
0000
0000
0000
,  // measure 47
0001
0000
1000
0000
,  // measure 48
0001
0000
0000
0000
,  // measure 49
0100
0000
0010
0000
,  // measure 50
1000
0000
0000
0000
,  // measure 51
0100
0000
0001
0000
,  // measure 52
0010
0000
0000
0000
,  // measure 53
1001
0000
0000
0000
;
