#TITLE:SUXX UNLIMITED;
#SUBTITLE:;
#ARTIST:X (DJ Bouche);
#TITLETRANSLIT:;
#SUBTITLETRANSLIT:;
#ARTISTTRANSLIT:;
#CREDIT:;
#BANNER:suxx.png;
#BACKGROUND:suxx-bg.png;
#LYRICSPATH:;
#CDTITLE:!hiryuu.png;
#MUSIC:suxx.mp3;
#OFFSET:-0.032;
#SAMPLESTART:64.476;
#SAMPLELENGTH:12.000;
#SELECTABLE:YES;
#BPMS:0.000=300.000,160.000=280.000,192.000=300.000,224.000=150.000,240.000=300.000,272.000=150.000,280.000=134.000,280.500=119.000,281.000=104.000,281.500=88.000,282.000=74.000,282.500=60.000,283.000=320.000;
#STOPS:283.000=1.000
;
#BGCHANGES:;

//---------------dance-single - MANIAC----------------
#NOTES:
     dance-single:
     MANIAC:
     Hard:
     10:
     0.897,1.000,0.596,0.222,0.061:
0000
0000
0000
0000
,
0000
0000
0000
0000
,
0000
0000
0000
0000
,
0000
0000
0000
0000
,
0000
0000
0000
0000
,
0000
0000
0000
0000
,
0000
0000
0000
0000
,
0000
0000
0000
0000
,
1000
0100
1000
0100
,
0010
0000
0001
0000
0010
0001
0010
0000
,
0001
1000
0001
1000
,
0010
0000
0100
0000
0010
0100
0010
0100
,
0010
0000
1000
0000
0100
0010
0001
0000
,
0100
0000
0010
0000
1000
0100
0010
0000
,
0001
0000
0100
0010
0000
1000
0100
0000
,
0010
0001
1001
0000
,
1000
0000
1000
0000
0000
1000
0000
0010
,
0100
0000
0100
0000
0000
0100
0000
0100
,
0001
0000
0001
0000
0000
0001
0000
0001
,
0100
0010
0100
1000
0100
0001
0010
0100
,
0010
0000
0010
0000
0000
0001
0000
0001
,
1000
0000
1000
0000
0000
0010
0000
0010
,
0100
0000
0100
0000
0000
0001
0000
0001
,
1000
0000
1001
0000
,
1000
0000
1001
0000
0001
0010
0001
0000
,
0100
0010
0000
1000
0100
0000
1000
0010
,
0100
0000
0001
0000
0100
0010
1000
0000
,
0001
1000
0001
1000
0001
0000
0010
0000
,
0100
0000
1001
0000
0001
0100
0010
0000
,
1000
0100
0000
1000
0001
0000
0100
0010
,
1000
0000
0001
0000
0010
0100
1000
0000
,
0001
0010
0001
1000
0100
0000
1001
0000
,
1000
0010
0100
0000
0001
0010
0100
0000
,
1000
0010
0100
0000
0001
0010
0100
0000
,
1000
0100
1000
0000
0001
0010
0001
0000
,
1000
0100
1000
0000
0001
0010
0001
0000
,
1000
0100
1000
0010
1000
0001
1000
0000
,
0001
0010
0001
0100
0001
1000
0001
0000
,
1000
0010
0100
0000
0001
0010
0100
0000
,
0001
0100
0010
1000
0100
0010
0001
0000
,
2000
0000
0001
0000
0000
0001
0000
0000
,
0100
0000
0000
0100
0000
0000
0100
0000
,
3200
0000
0000
0320
,
0000
0000
0032
0000
,
2003
0000
0001
0000
0000
0001
0000
0000
,
0100
0000
0000
0100
0000
0000
0100
0000
,
3200
0000
0000
0320
,
0000
0000
0032
0000
,
1003
0010
1000
0000
0001
0100
0001
0000
,
1000
0010
1000
0000
0001
0100
0001
0000
,
1000
0100
1000
0100
1000
0000
0010
0000
,
0100
0001
0100
0001
0100
0000
0010
0000
,
1000
0010
0100
0000
0001
0010
0100
0000
,
1000
0010
0100
0000
0001
0010
0100
0000
,
1000
0010
1000
0100
1000
0000
0001
0000
,
0100
0001
0100
0010
0100
0000
0001
0000
,
2001
0000
0100
0000
0000
0100
0000
0000
0100
0000
0000
0100
3000
0000
0100
0000
,
1002
0000
0100
0000
0000
0100
0000
0000
0100
0000
0000
0100
0003
0000
0100
0000
,
2001
0000
0010
0000
0000
0010
0000
0000
0010
0000
0000
0010
3000
0000
0010
0000
,
1002
0000
0010
0000
0000
0010
0000
0000
0010
0000
0000
0010
0003
0000
0010
0000
,
0001
0010
0100
1000
,
0001
0100
0010
1000
,
0001
0010
0100
1000
,
0001
0100
0010
1000
,
0001
0010
0001
0000
0100
0000
0010
0000
,
1000
0100
1000
0000
0010
0000
0100
0000
,
0001
0010
0001
0010
0001
0000
1001
0000
,
1000
0100
1000
0100
1000
0000
1001
0000
,
0000
0000
0101
0000
0000
0110
0000
0000
1100
0000
0000
0110
0000
0000
0101
0000
,
0000
0000
0011
0000
0000
0110
0000
0000
1010
0000
0000
0110
0000
0000
0011
0000
,
2002
0000
0000
0000
0000
0000
0000
3003
,
1000
0100
1000
0010
0100
0010
1000
0001
,
0010
0001
0100
0010
1000
0100
1000
0001
,
0100
0010
0100
0001
0010
0001
1000
0010
,
0100
0010
1000
0001
0010
0001
0100
0010
,
1000
0100
0010
0001
1000
0100
0010
0001
,
1000
0010
0100
0001
1000
0010
0100
0001
,
1000
0100
0010
0001
1000
0100
0010
0001
,
1000
0010
0100
0001
1000
0010
0100
0001
,
1000
0100
1000
0100
0010
0001
0010
0001
,
0100
0010
0100
0010
1000
0001
1000
0001
,
1000
0010
0100
0001
1000
0100
0010
0001
,
1000
0010
0100
0001
1000
0100
0010
0001
,
1000
0010
1000
0010
1000
0100
1000
0100
,
1000
0010
1000
0010
1000
0100
1000
0100
,
0010
0001
0010
0001
0010
0100
0010
0100
,
0010
0001
0010
0001
0010
0100
0010
0100
,
1100
0000
0000
1001
0000
0000
0011
0000
,
0101
0000
0000
0110
0000
0000
1100
0000
,
0011
0000
0000
0101
0000
0000
2001
0000
,
0010
0000
0200
0000
0000
0000
0000
3300
,
1001
0000
0000
1100
0000
0000
1010
0000
,
0110
0000
0000
0101
0000
0000
0011
0000
,
0110
0000
0000
2200
0000
0300
0000
0000
,
3001
0010
0001
0100
0010
1000
0100
0000
,
1010
0000
0000
0110
0000
0000
0101
0000
,
0011
0000
0000
0110
0000
0000
1100
0000
,
1001
0000
0000
0011
0000
0000
0200
0000
,
1000
0001
0000
0300
,
0101
0000
0000
0011
0000
0000
0110
0000
,
1100
0000
0000
1010
0000
0000
0110
0000
,
0101
0000
0000
1001
0000
0000
0020
0000
,
0001
1000
0000
0030
,
1000
0100
1000
0000
0010
1000
0010
0000
,
1000
0100
1000
0010
1000
0100
1000
0000
,
0001
0010
0001
0000
0100
0001
0100
0000
,
0001
0010
0001
0000
0100
0001
0010
0001
,
0100
0010
0100
0000
0010
1000
0010
0000
,
0100
0001
0010
0100
1000
0010
0100
0000
,
0101
0000
0010
0100
0000
0000
1000
0000
,
1010
0000
0010
0100
0000
0000
0001
0000
,
1001
0000
0000
1000
0001
0000
0000
0001
,
1000
0010
0100
0001
0010
0001
1000
0001
,
2002
0000
0000
0000
,
0000
0000
0000
0000
,
3003
0000
0000
0000
;

//---------------dance-single - TRICKY----------------
#NOTES:
     dance-single:
     TRICKY:
     Medium:
     8:
     0.662,0.871,0.525,0.252,0.061:
0000
0000
0000
0000
,
0000
0000
0000
0000
,
0000
0000
0000
0000
,
0000
0000
0000
0000
,
0000
0000
0000
0000
,
0000
0000
0000
0000
,
0000
0000
0000
0000
,
0000
0000
0000
0000
,
1000
0001
1000
0001
,
0100
0010
0100
0010
,
1000
0001
1000
0001
,
0100
0010
0100
0010
,
1000
0000
0000
1000
0000
0000
1000
0000
,
0001
0000
0000
0001
0000
0000
0001
0000
,
1001
0000
0000
0110
0000
0000
1001
0000
,
0110
0000
1001
0000
,
1000
0000
0010
0000
0000
1000
0000
0001
,
0010
0000
0001
0000
0000
0100
0000
0010
,
1000
0000
0001
0000
0000
1000
0000
0001
,
1000
0100
0010
0001
,
1000
0000
1100
0000
0000
0100
0000
1000
,
0001
0000
0011
0000
0000
0010
0000
0001
,
1000
0000
1001
0000
0000
0001
0000
0100
,
0110
0000
1001
0000
,
1000
0000
0100
0000
0000
1000
0000
0001
,
0010
0000
0001
0000
0000
0100
0000
0010
,
1000
0000
0001
0000
0000
0100
0000
0001
,
1000
0010
0100
0001
,
1000
0000
1001
0000
0000
0001
0000
1000
,
0001
0000
1001
0000
0000
1000
0000
0001
,
1000
0000
1001
0000
0000
0001
0000
1000
,
0010
0100
0001
1000
,
0001
0010
0001
0010
,
0100
1000
0100
1000
,
0010
0100
0010
0100
,
0001
1000
0001
1000
,
0001
0010
0100
1000
,
0001
0100
0010
1000
,
0001
0010
0100
1000
,
0001
1000
0001
1000
0001
1000
0001
0000
,
2002
0000
0000
0000
,
0000
0000
0000
0003
,
0020
3000
0000
0200
,
0000
0030
0002
0300
,
2000
0000
0000
0000
,
0000
0000
0000
0003
,
0200
0000
3000
0020
,
0000
0300
0002
0030
,
1003
0100
1000
0000
0001
0000
0100
0000
,
0001
0010
0001
0000
0100
0000
0010
0000
,
1000
0100
1000
0000
0010
0000
0100
0000
,
0001
0010
0001
0000
1000
0100
1000
0100
,
1000
0010
1000
0000
0001
0000
0100
0000
,
0010
0100
0010
0000
1000
0000
0001
0000
,
0010
0001
0010
0000
0001
0000
1000
0000
,
0010
0100
0010
0000
1000
0001
1000
0000
,
0002
0000
1000
0000
0000
1000
0000
0000
1000
0000
0000
1000
0003
0000
1000
0000
,
0002
0000
0100
0000
0000
0100
0000
0000
0100
0000
0000
0100
0003
0000
0100
0000
,
0002
0000
0010
0000
0000
0010
0000
0000
0010
0000
0000
0010
0003
0000
0010
0000
,
0002
0000
1000
0000
0000
0100
0000
0000
0010
0000
0000
0100
0003
0000
1000
0000
,
0001
0010
0001
0100
,
0001
1000
0001
0100
,
0001
1000
0100
1000
,
0010
0000
0100
0000
0001
1000
0001
0000
,
1000
0100
1000
0010
,
0100
0001
0010
0001
,
0100
0010
1000
0001
,
1000
0001
1000
0001
1000
0001
1000
0001
,
2000
0000
0100
0000
0000
0100
0000
0000
0100
0000
0000
0100
0000
0000
0100
0000
,
0000
0000
0010
0000
0000
0010
0000
0000
0010
0000
0000
0010
0000
0000
0010
0000
,
0002
0000
0000
3003
,
1000
0010
0100
0001
,
1000
0100
0010
0001
,
1000
0010
0100
0001
,
1000
0100
0010
0001
,
1000
0010
1000
0010
,
0100
0001
0100
0001
,
1000
0100
1000
0100
,
0010
0001
0010
0001
,
1000
0001
1000
0001
,
0100
0010
0100
0010
,
1000
0001
1000
0001
,
0100
0010
0100
0010
,
1000
0001
1000
0001
,
1000
0010
1000
0010
,
1000
0001
1000
0001
,
0100
0001
0100
0001
,
1001
0000
0000
1001
0000
0000
0000
0000
,
0110
0000
0000
0110
0000
0000
0000
0000
,
1001
0000
0000
1001
0000
0000
1000
0000
,
0100
0002
0000
0003
,
0110
0000
0000
0110
0000
0000
0000
0000
,
1100
0000
0000
1100
0000
0000
0000
0000
,
1001
0000
0000
1001
0000
0000
0000
0000
,
0220
0000
0000
0330
,
1100
0000
0000
1010
0000
0000
0110
0000
,
0101
0000
0000
0011
0000
0000
0110
0000
,
1100
0000
0000
1001
0000
0000
0110
0000
,
1001
0220
0000
0330
,
1010
0000
0000
0110
0000
0000
0101
0000
,
0011
0000
0000
0110
0000
0000
1100
0000
,
1010
0000
0000
0110
0000
0000
1001
0000
,
0110
2002
0000
3003
,
1000
0100
0010
0001
,
0100
0010
1000
0100
,
0010
0001
0100
0010
,
1000
0100
1000
0100
,
0010
0001
0010
0001
,
1000
0001
1000
0001
,
1000
0000
0000
1000
0000
0000
0000
0000
,
0001
0000
0000
0001
0000
0000
0000
0000
,
1001
0000
0110
0000
,
0020
0000
0000
0030
,
2002
0000
0000
0000
,
0000
0000
0000
0000
,
3003
0000
0000
0000
;

//---------------dance-single - BASIC----------------
#NOTES:
     dance-single:
     BASIC:
     Easy:
     6:
     0.506,0.697,0.303,0.242,0.000: // measure 1
0000
0000
0000
0000
,  // measure 2
0000
0000
0000
0000
,  // measure 3
0000
0000
0000
0000
,  // measure 4
0000
0000
0000
0000
,  // measure 5
0000
0000
0000
0000
,  // measure 6
0000
0000
0000
0000
,  // measure 7
0000
0000
0000
0000
,  // measure 8
0000
0000
0000
0000
,  // measure 9
1000
0000
1000
0000
,  // measure 10
0001
0000
0001
0000
,  // measure 11
1000
0000
1000
0000
,  // measure 12
0001
0000
0001
0000
,  // measure 13
1000
0001
1000
0000
,  // measure 14
0010
0100
0010
0000
,  // measure 15
1000
0000
0000
0010
0000
0000
0100
0000
,  // measure 16
0001
0000
1000
0000
,  // measure 17
0001
1000
0001
0000
,  // measure 18
1000
0001
1000
0000
,  // measure 19
0010
0100
0010
0000
,  // measure 20
0110
0000
0000
0000
,  // measure 21
1000
0010
0100
0000
,  // measure 22
0001
0010
0100
0000
,  // measure 23
1000
0001
1000
0000
,  // measure 24
1001
0000
0110
0000
,  // measure 25
1000
0100
1000
0100
,  // measure 26
0010
0001
0010
0001
,  // measure 27
1000
0000
0001
0000
,  // measure 28
2002
0000
0000
3003
,  // measure 29
0010
0100
0010
0100
,  // measure 30
0001
1000
0001
1000
,  // measure 31
0001
0000
1000
0000
,  // measure 32
0220
0000
0000
0330
,  // measure 33
1000
0100
1000
0100
,  // measure 34
1000
0100
1000
0100
,  // measure 35
0010
0001
0010
0001
,  // measure 36
0010
0001
0010
0001
,  // measure 37
1000
0001
1000
0000
,  // measure 38
0001
1000
0001
0000
,  // measure 39
1000
0100
0010
0001
,  // measure 40
1000
0010
0100
0001
,  // measure 41
2000
0000
0000
0000
,  // measure 42
0000
0000
0000
0000
,  // measure 43
3200
0000
0000
0320
,  // measure 44
0000
0000
0032
0000
,  // measure 45
2003
0000
0000
0000
,  // measure 46
0000
0000
0000
0000
,  // measure 47
3200
0000
0000
0320
,  // measure 48
0000
0000
0032
0000
,  // measure 49
1003
0100
0010
0001
,  // measure 50
1000
0100
0010
0001
,  // measure 51
1000
0010
0100
0001
,  // measure 52
1000
0010
0100
0001
,  // measure 53
1000
0100
1000
0100
,  // measure 54
0010
0001
0010
0001
,  // measure 55
1000
0001
1000
0001
,  // measure 56
0100
0010
0100
0010
,  // measure 57
2000
0000
0001
0000
,  // measure 58
3002
0000
0100
0000
,  // measure 59
0203
0000
0010
0000
,  // measure 60
0320
0000
1000
0000
,  // measure 61
1030
0000
1000
0000
,  // measure 62
1000
0000
1001
0000
,  // measure 63
0001
0000
0001
0000
,  // measure 64
0001
0000
1001
0000
,  // measure 65
1000
0001
1000
0000
,  // measure 66
0001
1000
1001
0000
,  // measure 67
1000
0000
0001
0000
,  // measure 68
2002
0000
0000
3003
,  // measure 69
0001
0000
0010
0000
,  // measure 70
0100
0000
1000
0000
,  // measure 71
2002
0000
0000
3003
,  // measure 72
0001
0000
0001
0000
,  // measure 73
1000
0000
1000
0000
,  // measure 74
0010
0000
0010
0000
,  // measure 75
0100
0000
0100
0000
,  // measure 76
0001
1000
0001
0000
,  // measure 77
1000
0001
1000
0000
,  // measure 78
0010
0100
0010
0000
,  // measure 79
0100
0010
0100
0000
,  // measure 80
0001
0010
0100
1000
,  // measure 81
0001
0010
0100
1000
,  // measure 82
0001
0010
0100
1000
,  // measure 83
0001
0010
0100
1000
,  // measure 84
0001
0100
0010
1000
,  // measure 85
0001
0100
0010
1000
,  // measure 86
0001
0100
0010
1000
,  // measure 87
0001
0100
0010
1000
,  // measure 88
0001
0000
0000
0001
0000
0000
0000
0000
,  // measure 89
1000
0000
0000
1000
0000
0000
0000
0000
,  // measure 90
0010
0000
0000
0010
0000
0000
0100
0000
,  // measure 91
0010
0100
0000
0000
,  // measure 92
0001
0000
0000
0001
0000
0000
0000
0000
,  // measure 93
1000
0000
0000
1000
0000
0000
0000
0000
,  // measure 94
0001
0000
0000
1000
0000
0000
0000
0000
,  // measure 95
2002
0000
0000
3003
,  // measure 96
1001
0000
0000
1001
0000
0000
0000
0000
,  // measure 97
0110
0000
0000
0110
0000
0000
0000
0000
,  // measure 98
1001
0000
0000
0110
0000
0000
1001
0000
,  // measure 99
1001
1001
0000
0000
,  // measure 100
0110
0000
0000
0110
0000
0000
0000
0000
,  // measure 101
1001
0000
0000
1001
0000
0000
0000
0000
,  // measure 102
0110
0000
0000
1001
0000
0000
0110
0000
,  // measure 103
0110
0110
0000
0000
,  // measure 104
0001
0000
0010
0000
0001
0010
0001
0000
,  // measure 105
1000
0000
0100
0000
1000
0100
1000
0000
,  // measure 106
0001
0000
1000
0000
0001
1000
0001
0000
,  // measure 107
1000
0000
0001
0000
1000
0001
1000
0000
,  // measure 108
0010
0000
0100
0000
0010
0100
0010
0000
,  // measure 109
0100
0000
0010
0000
0100
0010
0100
0000
,  // measure 110
0001
0000
1000
0001
0000
1000
0001
0000
,  // measure 111
1000
0000
0001
1000
0000
0001
1000
0000
,  // measure 112
0001
0000
0000
1000
0001
0000
0000
1000
,  // measure 113
0001
1000
0001
1000
,  // measure 114
2002
0000
0000
0000
,  // measure 115
0000
0000
0000
0000
,  // measure 116
3003
0000
0000
0000
;
