#TITLE:SNOW;
#SUBTITLE:;
#ARTIST:RAM;
#TITLETRANSLIT:;
#SUBTITLETRANSLIT:;
#ARTISTTRANSLIT:;
#CREDIT:;
#BANNER:snow.png;
#BACKGROUND:snow-bg.png;
#LYRICSPATH:;
#CDTITLE:!hiryuu.png;
#MUSIC:snow.ogg;
#OFFSET:0.000;
#SAMPLESTART:21.332;
#SAMPLELENGTH:21.346;
#SELECTABLE:YES;
#BPMS:0.000=180.020;
#STOPS:;
#BGCHANGES:;

//---------------dance-single - MANIAC----------------
#NOTES:
     dance-single:
     MANIAC:
     Hard:
     9:
     0.733,0.707,0.375,0.412,0.300:
0000
0000
0000
0000
,
0000
0000
0000
0000
,
0000
0000
0000
0000
,
0000
0000
0000
0000
,
1000
0000
0000
1100
0000
0000
1000
0000
0000
0000
0001
0000
0010
0000
0100
0000
,
1000
0000
0000
1001
0000
0000
1000
0000
0000
0000
0001
0000
1000
0000
0010
0000
,
0100
0000
0000
0101
0000
0000
0100
0000
0000
0000
0001
0000
0100
0000
0010
0000
,
1000
0000
0000
1010
0000
0000
1000
0000
0000
0000
0001
0000
1000
0000
0010
0000
,
0100
0000
0000
0100
0000
0000
0101
0000
0000
0000
0001
0000
0000
0000
0001
0000
,
1000
0000
0000
1000
0000
0000
1010
0000
0000
0000
0010
0000
1000
0000
0001
0000
,
0100
0000
0000
0100
0000
0000
0110
0000
0000
0000
0010
0000
0000
0000
1000
0000
,
0001
0000
0000
0001
0000
0000
0101
0000
0000
0000
0100
0000
0001
0000
1000
0000
,
0012
0000
0000
0010
0000
0000
0010
0000
0000
0000
0010
0000
0000
0000
1000
0000
,
1000
0000
0000
1000
0000
0000
1000
0000
0000
0000
1000
0000
0000
0000
2000
0000
,
0000
0000
0000
3003
,
1000
0000
0000
0100
0000
0000
0010
0000
0000
0000
0001
0000
1000
0000
0001
0000
,
1000
0000
0000
0100
0000
0000
1000
0000
0000
0000
0100
0000
1000
0000
0001
0000
,
0100
0100
0001
0100
0100
0010
1000
0001
,
0100
0000
0000
0001
0000
0000
0100
0000
0000
0000
0001
0000
0100
0000
0010
0000
,
1000
1000
0100
1000
1000
0010
1000
0001
,
1000
0000
0000
0100
0000
0000
0010
0000
0000
0000
0001
0000
0010
0000
0100
0000
,
0010
0010
0001
0010
0010
0100
0010
0001
,
1000
0000
0000
0010
0000
0000
0100
0000
0000
0000
0001
0000
1000
0000
0100
0000
,
0010
0010
0100
0010
0010
0001
1000
0001
,
1000
0000
0000
1001
0000
0000
0001
0000
0000
0000
1000
0000
0100
0000
1000
0000
,
0001
0001
0010
0100
0100
0010
0001
1000
,
0001
0000
0000
0101
0000
0000
0001
0000
0000
0000
1000
0000
0100
0000
1000
0000
,
0010
0010
0100
0001
0001
0010
0100
1000
,
0002
0000
0000
0010
0003
0000
0200
0000
0000
1000
0300
0000
2000
0000
0000
0010
,
3000
0000
0200
0000
0000
0001
0300
0000
0002
0000
0000
1000
0003
0000
2000
0000
,
0000
0010
3000
0000
0200
0000
0000
0001
0300
0000
0002
0000
0000
1000
0003
0000
,
1000
0100
0010
0001
0010
0100
1000
0001
,
1000
0000
0100
1000
0000
1000
0100
0000
,
1000
0001
1000
0000
0000
0000
1001
0000
0000
0000
0000
0000
0110
0000
0000
0000
,
0001
0000
0010
0001
0000
0001
0010
0000
,
0001
0010
0001
0000
0000
0000
0101
0000
0000
0000
0000
0000
0011
0000
0000
0000
,
0100
0000
0001
0100
0000
0100
0001
0000
,
1000
0100
1000
0000
0000
0000
1100
0000
0000
0000
0000
0000
0011
0000
0000
0000
,
0010
0000
0001
1000
0000
1000
0001
0000
,
1000
0010
1000
0000
0000
0000
1010
0000
0000
0000
0000
0000
0101
0000
0000
0000
,
1001
0000
0001
1001
0000
1000
1001
0000
,
0001
0010
0001
0000
0000
0000
0011
0000
0000
0000
0000
0000
1100
0000
0000
0000
,
1010
0000
1000
1010
0000
0010
1010
0000
,
1000
0100
1000
0000
0000
0000
1100
0000
0000
0000
0000
0000
0011
0000
0000
0000
,
0002
0000
0000
0010
0003
0000
0020
0000
0000
0100
0030
0000
0200
0000
0000
1000
,
0300
0000
2000
0000
0000
0001
3000
0000
0002
0000
0000
0100
0003
0000
0200
0000
,
0000
0010
0300
0000
0020
0000
0000
1000
0030
0000
2000
0000
0000
0001
3000
0000
,
0001
1000
0100
0010
0001
0010
0100
1000
,
0002
0000
0000
2003
0000
0000
3002
0000
,
1003
0100
0010
0001
0100
0010
0110
0000
,
0020
0000
0000
0230
0000
0000
0320
0000
,
1030
0010
0100
0001
0010
0100
1001
0000
,
2000
0000
0000
3200
0000
0000
0320
0000
,
0031
0010
0100
1000
0010
0100
1001
0000
,
2000
0000
0000
3020
0000
0000
0230
0000
,
0301
0010
0100
1000
0100
0010
0001
1000
,
0001
1000
1000
0001
1000
1000
0010
0100
,
0100
0010
0100
0000
0010
0000
1000
0010
0000
0010
1000
0000
1010
0000
0000
0000
,
0010
0100
0100
0010
0100
0100
0001
0010
,
0010
0001
0010
0000
0001
0000
0100
0001
0000
0001
0100
0000
0101
0000
0000
0000
,
0001
0100
0100
0001
0100
0100
0010
1000
,
1000
0001
1000
0000
0001
0000
1000
0001
0000
0001
1000
0000
1001
0000
0000
0000
,
1000
0100
0100
1000
0100
0100
0010
0001
,
0001
0010
0100
1000
0100
0010
0001
1000
,
0001
0000
0000
0101
0000
0000
0001
0000
0000
0000
1000
0000
0010
0000
0100
0000
,
0001
0001
1000
0001
0001
1000
0010
1000
,
0010
0000
0000
1010
0000
0000
0010
0000
0000
0000
1000
0000
0100
0000
0010
0000
,
0001
0001
0100
0010
0010
1000
0100
1000
,
0001
0000
0000
0101
0000
0000
0001
0000
0000
0000
0010
0000
0001
0000
0100
0000
,
0010
0010
1000
0010
0010
0100
0001
1000
,
0001
0000
0000
0101
0000
0000
0001
0000
0000
0000
1000
0000
0100
0000
1000
0000
,
0010
0100
0010
0100
0001
1000
0001
1000
,
0002
0000
0000
1000
0003
0000
2000
0000
0000
0001
3000
0000
0001
0000
1000
0000
,
0001
0010
0100
1000
0100
0010
0001
1000
,
0020
0000
0000
0100
0030
0000
0200
0000
0000
0010
0300
0000
0010
0000
0100
0000
,
0001
0100
0010
1000
0100
0010
0001
1000
,
0002
0000
0000
0010
0003
0000
0020
0000
0000
0100
0030
0000
0200
0000
0000
1000
,
0300
0000
2000
0000
0000
0010
3000
0000
0020
0000
0000
0100
0030
0000
0200
0000
,
0000
0001
0300
0000
0002
0000
0000
0010
0003
0000
2000
0000
0000
0010
3000
0000
,
0022
0000
0030
0003
0000
0000
0000
0000
;

//---------------dance-single - TRICKY----------------
#NOTES:
     dance-single:
     TRICKY:
     Medium:
     8:
     0.564,0.555,0.244,0.056,0.225:
0000
0000
0000
0000
,
0000
0000
0000
0000
,
0000
0000
0000
0000
,
0000
0000
0000
0000
,
1000
0000
0000
0000
0000
1000
0000
0000
,
0001
0000
0000
1000
0000
0000
0001
0000
0000
0000
0000
0000
0000
0000
0000
0000
,
0100
0000
0000
0000
0000
0010
0000
0000
,
0100
0000
0000
0010
0000
0000
0100
0000
0000
0000
0000
0000
0000
0000
0000
0000
,
0001
0000
0000
0001
0000
0000
0010
0000
0000
0000
0010
0000
0000
0000
0010
0000
,
0100
0000
0000
0100
0000
0000
1000
0000
0000
0000
1000
0000
0000
0000
1000
0000
,
0010
0000
0000
0010
0000
0000
0100
0000
0000
0000
0100
0000
0000
0000
0100
0000
,
0001
0000
0000
0001
0000
0000
1000
0000
0000
0000
1000
0000
0000
0000
1000
0000
,
0001
0000
0000
0001
0000
0000
0001
0000
0000
0000
0001
0000
0000
0000
0001
0000
,
1000
0000
0000
1000
0000
0000
1000
0000
0000
0000
1000
0000
0000
0000
1000
0000
,
0000
0000
0000
0000
,
2002
0000
0000
3003
,
0001
0010
0001
0010
,
0001
0001
0010
0001
0001
0010
0001
0001
,
1000
0100
1000
0100
,
1000
1000
0100
1000
1000
0100
1000
1000
,
0001
0010
0100
1000
,
0001
0001
0010
0100
0100
1000
0001
0001
,
1000
0100
0010
0001
,
1000
1000
0100
0010
0010
0001
1000
1000
,
0001
0000
0000
0010
0000
0000
0001
0000
0000
0010
0000
0000
0001
0000
0010
0000
,
0001
0010
0100
1000
0100
0010
0001
1000
,
0010
0000
0000
0100
0000
0000
0010
0000
0000
0100
0000
0000
0010
0000
0100
0000
,
0010
1000
0001
1000
0100
0010
0001
1000
,
0001
0000
0000
0010
0000
0000
0100
0000
0000
1000
0000
0000
0010
0000
0000
0100
,
0000
0000
0001
0000
0000
1000
0000
0000
0010
0000
0000
0100
0000
0000
0001
0000
,
0000
1000
0000
0000
0100
0000
0000
0010
0000
0000
0001
0000
0000
1000
0000
0000
,
0220
0000
0000
0330
,
1000
0000
0000
1001
0000
0000
0001
0000
,
0100
0010
0000
1000
0000
0000
0100
0000
,
0010
0000
0000
0110
0000
0000
0100
0000
,
1000
0010
0000
0100
0000
0000
0001
0000
,
1000
0000
0000
1100
0000
0000
0100
0000
,
0010
0001
0000
0100
0000
0000
0010
0000
,
0100
0000
0000
0101
0000
0000
0001
0000
,
0010
0100
0000
1000
0000
0000
0001
0000
,
1000
0000
0001
1000
0000
1000
0001
0000
,
1001
0000
0000
0110
0000
0000
1001
0000
,
0010
0000
0100
0010
0000
0010
0100
0000
,
0110
0000
0000
1001
0000
0000
0110
0000
,
0001
0000
0000
1000
0000
0000
0001
0000
0000
1000
0000
0000
0010
0000
0000
0100
,
0000
0000
0010
0000
0000
0100
0000
0000
0001
0000
0000
0010
0000
0000
0100
0000
,
0000
1000
0000
0000
0100
0000
0000
0010
0000
0000
0001
0000
0000
1000
0000
0000
,
2002
0000
0000
3003
,
1001
0000
0000
1001
0000
0000
1001
0000
,
0001
0010
0100
1000
0001
1000
0001
0000
,
0011
0000
0000
0011
0000
0000
0011
0000
,
0010
0001
1000
0100
0010
0001
1000
0000
,
1100
0000
0000
1100
0000
0000
1100
0000
,
0100
1000
0001
0010
0100
1000
0010
0000
,
0110
0000
0000
0110
0000
0000
0110
0000
,
0010
1000
0100
0010
0001
0010
0100
1000
,
0001
1000
1000
0000
0001
0001
0000
1000
,
1000
0001
0010
0001
0010
0001
0010
0001
,
0010
0001
0001
0000
0010
0010
0000
0100
,
0100
0010
0100
0010
0100
0010
0100
0010
,
0100
1000
1000
0000
0001
0001
0000
1000
,
1000
0001
1000
0001
1000
0001
1000
0001
,
1000
0010
0010
0000
0100
0100
0000
0001
,
0001
0010
0100
1000
0100
0010
0001
1000
,
0001
0000
0000
1000
0000
0000
0001
0000
0000
0000
1000
0000
0001
0000
1000
0000
,
0001
0010
0100
1000
0100
0010
0001
1000
,
0001
0000
0000
0010
0000
0000
0100
0000
0000
0000
0010
0000
0001
0000
0010
0000
,
0100
1000
0100
0010
0001
0010
0100
1000
,
0100
0000
0000
1000
0000
0000
0100
0000
0000
0000
1000
0000
0100
0000
0010
0000
,
0001
0010
0001
0010
0100
1000
0100
1000
,
0100
0000
0000
1000
0000
0000
0100
0000
0000
0000
1000
0000
0100
0000
0010
0000
,
0001
0100
0010
1000
0100
0010
0001
1000
,
0001
0000
0000
0010
0000
0000
0100
0000
0000
1000
0000
0000
0010
0000
0000
0100
,
0000
0000
0001
0000
0000
1000
0000
0000
0100
0000
0000
0010
0000
0000
0001
0000
,
0000
1000
0000
0000
0100
0000
0000
0010
0000
0000
0100
0000
0000
1000
0000
0000
,
0001
0010
0100
0010
0001
1000
0100
1000
,
0001
0000
0000
0010
0000
0000
0001
0000
0000
0010
0000
0000
0100
0000
0000
1000
,
0000
0000
0100
0000
0000
1000
0000
0000
0001
0000
0000
1000
0000
0000
0001
0000
,
0000
1000
0000
0000
0001
0000
0000
0100
0000
0000
1000
0000
0000
0100
0000
0000
,
0101
0000
0000
0000
;

//---------------dance-single - BASIC----------------
#NOTES:
     dance-single:
     BASIC:
     Easy:
     4:
     0.284,0.298,0.122,0.169,0.000: // measure 1
0000
0000
0000
0000
,  // measure 2
0000
0000
0000
0000
,  // measure 3
0000
0000
0000
0000
,  // measure 4
0000
0000
0000
0000
,  // measure 5
1000
0000
0000
0000
0000
1000
0000
0000
,  // measure 6
0001
0000
0000
0000
0000
0001
0000
0000
,  // measure 7
0100
0000
0000
0000
0000
0100
0000
0000
,  // measure 8
0010
0000
0000
0000
0000
0010
0000
0000
,  // measure 9
1000
0000
1000
0000
,  // measure 10
0100
0000
0000
0100
0000
0000
0000
0000
,  // measure 11
0010
0000
0010
0000
,  // measure 12
0001
0000
0000
0001
0000
0000
0000
0000
,  // measure 13
1000
0000
0010
0000
,  // measure 14
0100
0000
0000
0001
0000
0000
0000
0000
,  // measure 15
1001
0000
0000
0000
,  // measure 16
0110
0000
0000
0000
,  // measure 17
1000
0000
0100
0000
,  // measure 18
1000
0100
1000
0000
,  // measure 19
0001
0000
0010
0000
,  // measure 20
0001
0010
0001
0000
,  // measure 21
1000
0000
0100
0000
,  // measure 22
0010
0001
1000
0000
,  // measure 23
0001
0000
0100
0000
,  // measure 24
0010
1000
0001
0000
,  // measure 25
1000
0000
0010
0000
,  // measure 26
1000
0001
1000
0000
,  // measure 27
0001
0000
0100
0000
,  // measure 28
0010
0100
0010
0000
,  // measure 29
1000
0000
0100
0000
,  // measure 30
0010
0000
0001
0000
,  // measure 31
0100
0000
0010
0000
,  // measure 32
1000
0001
1000
0001
,  // measure 33
1000
0000
1001
0000
,  // measure 34
0001
0000
0000
0001
0000
0000
0001
0000
,  // measure 35
0010
0000
0110
0000
,  // measure 36
0100
0000
0000
0100
0000
0000
0100
0000
,  // measure 37
1000
0000
1001
0000
,  // measure 38
0001
0000
0000
0010
0000
0000
0100
0000
,  // measure 39
1000
0000
1010
0000
,  // measure 40
0010
0000
0000
0100
0000
0000
0001
0000
,  // measure 41
1000
0000
1001
0000
,  // measure 42
0001
0000
0000
1000
0000
0000
0001
0000
,  // measure 43
0100
0000
0110
0000
,  // measure 44
0010
0000
0000
0100
0000
0000
0010
0000
,  // measure 45
1000
0000
0000
1000
0000
0000
0100
0000
,  // measure 46
0000
0100
0000
0000
0010
0000
0000
0010
,  // measure 47
0000
0000
0001
0000
0000
0001
0000
0000
,  // measure 48
0001
0010
0100
1000
,  // measure 49
0002
0000
0000
0003
,  // measure 50
2002
0000
0000
3003
,  // measure 51
0200
0000
0000
0300
,  // measure 52
0220
0000
0000
0330
,  // measure 53
0002
0000
0000
0003
,  // measure 54
2200
0000
0000
3300
,  // measure 55
0020
0000
0000
0030
,  // measure 56
0202
0000
0000
0303
,  // measure 57
0000
1000
0000
0000
1000
0000
0000
2000
,  // measure 58
0000
0001
0100
3001
,  // measure 59
0000
0001
0000
0000
0001
0000
0000
0002
,  // measure 60
0000
0010
1000
0103
,  // measure 61
0000
0100
0000
0000
0100
0000
0000
0200
,  // measure 62
0000
0001
1000
0310
,  // measure 63
0000
0010
0000
0000
0010
0000
0000
0020
,  // measure 64
0000
0100
0001
1030
,  // measure 65
0001
0000
0001
0000
,  // measure 66
0010
0010
0010
0010
,  // measure 67
0100
0000
0100
0000
,  // measure 68
1000
1000
1000
1000
,  // measure 69
0010
0000
0100
0000
,  // measure 70
0001
0001
0001
0001
,  // measure 71
1000
0000
0100
0000
,  // measure 72
0010
0001
0010
0001
,  // measure 73
1000
0000
0000
1000
0000
0000
0100
0000
,  // measure 74
0000
0100
0000
0000
0010
0000
0000
0010
,  // measure 75
0000
0000
0001
0000
0000
0001
0000
0000
,  // measure 76
0001
0010
0100
1000
,  // measure 77
0001
0000
0000
0001
0000
0000
0010
0000
,  // measure 78
0000
0010
0000
0000
0100
0000
0000
0100
,  // measure 79
0000
0000
1000
0000
0000
1000
0000
0000
,  // measure 80
2002
0000
3003
0000
;
