#TITLE:SHRINE;
#SUBTITLE:(AOI VF5FS Ver.);
#ARTIST:Kazuki Tagaki;
#TITLETRANSLIT:;
#SUBTITLETRANSLIT:;
#ARTISTTRANSLIT:;
#GENRE:;
#CREDIT:;
#MENUCOLOR:;
#METERTYPE:DDR;
#BANNER:shrine.png;
#BACKGROUND:shrine-bg.png;
#LYRICSPATH:;
#CDTITLE:!hiryuu.png;
#MUSIC:shrine.ogg;
#OFFSET:0.000;
#SAMPLESTART:10.786;
#SAMPLELENGTH:21.577;
#SELECTABLE:YES;
#LISTSORT:;
#BPMS:0.000=178.020,288.000=89.010,304.000=178.020;
#STOPS:;
#BGCHANGES:;
#ATTACKS:;

//---------------dance-single - MANIAC----------------
#NOTES:
     dance-single:
     MANIAC:
     Hard:
     9:
     0.668,0.936,0.576,0.120,0.067:
0000
0000
0000
0000
,
0000
0000
0000
0000
,
0000
0000
0000
0000
,
0000
0000
0000
0000
,
1000
0100
0010
0001
0000
0000
0101
0000
,
0001
0100
0010
1000
0000
0000
1100
0000
,
1000
0010
0100
0001
0000
0000
0011
0000
,
0001
0010
0100
1000
0001
1000
0010
0100
,
0001
1000
0000
1001
0000
1000
0001
0010
,
0000
0011
0000
0001
1000
0100
2000
0000
,
3100
1000
0000
1100
0000
0100
0010
0001
,
0000
0101
0000
0001
0010
0001
0100
0001
,
1000
0010
0000
0110
0000
0100
0001
0010
,
0000
0011
0000
0010
0100
1000
0020
0000
,
0130
0001
0000
1001
0000
0010
0001
0100
,
0000
0110
0000
0010
1000
0100
0010
0001
,
1000
0100
0000
1100
0000
0010
0001
0010
,
0000
0011
0000
0001
0100
0010
2000
0000
,
3001
0100
0000
0101
0000
0010
1000
0010
,
0000
1010
0000
1000
0100
0010
0001
0100
,
0010
0100
0000
0110
0000
1000
0001
1000
,
0000
1001
0000
0001
0010
0100
2000
0000
,
3001
1000
0000
1001
0000
0100
0010
0100
,
0000
0110
0000
0010
1000
0100
0010
0001
,
1000
0000
1001
0000
0100
0010
0000
1000
,
0000
1100
0000
1000
0100
0000
0110
0000
,
0001
0000
0101
0000
0010
1000
0000
1100
,
0000
0010
0000
0001
1000
0000
1001
0000
,
0001
0000
0011
0000
0010
0100
0000
1000
,
0000
1010
0000
0100
0001
0000
0011
0000
,
0010
0000
0110
0000
1000
0010
0000
0110
,
0000
0100
0000
0001
1000
0000
1001
0000
,
0001
0010
0001
0010
0001
0100
0001
0100
,
0001
0010
0100
1000
0001
0000
1001
0000
,
1000
0100
1000
0100
1000
0010
1000
0010
,
1000
0010
0100
0001
0010
0000
0110
0000
,
0010
0100
1000
0010
0100
0001
0010
0100
,
1000
0010
0100
0001
0010
0000
0110
0000
,
0100
1000
0100
0010
0001
0010
0100
1000
,
0010
0100
0001
0100
0010
1000
0100
0010
,
0001
1000
0000
1001
0000
0001
0010
0100
,
0000
0110
0000
0010
0001
0100
0020
0000
,
0130
0010
0000
0110
0000
0010
1000
0100
,
0000
1100
0000
1000
0010
0100
0001
0010
,
0100
1000
0000
1100
0000
0100
0010
0001
,
0000
0101
0000
0100
0001
0010
0200
0000
,
0310
0001
0000
0101
0000
0100
0010
1000
,
0000
1100
0000
0100
0010
0001
1000
0001
,
1000
0100
0000
1100
0000
0100
0001
0100
,
0000
0101
0000
0100
1000
0100
2000
0000
,
3010
1000
0000
1010
0000
0010
0001
0010
,
0000
0011
0000
0010
1000
0100
0001
0100
,
1000
0010
0000
1010
0000
0010
0001
0010
,
0000
0011
0000
0010
1000
0010
2000
0000
,
3100
0001
0000
0101
0000
0100
1000
0100
,
0000
1100
0000
0100
0001
0100
1000
0010
,
0100
0000
0110
0000
0010
1000
0000
0010
,
0000
0100
0001
0000
0100
0010
0000
1000
,
0001
0000
1001
0000
0001
1000
0000
0010
,
0000
0100
0001
0000
1000
0010
0000
1000
,
0001
0000
0011
0000
0110
0000
1000
0100
,
0000
1100
0000
0100
0010
0001
1000
0001
,
1000
0000
1010
0000
0110
0000
0100
0001
,
0000
0101
0000
0011
0000
0100
1000
0001
,
1000
0000
1100
0000
1000
0010
0000
1000
,
0000
0010
0100
0000
0001
1000
0000
0100
,
0010
0000
0011
0000
0010
0001
0000
0100
,
0000
0001
1000
0000
0001
0010
0000
0100
,
1000
0000
1100
0000
0110
0000
0010
0001
,
0000
1001
0000
1000
0100
0010
0001
0010
,
0100
0000
0110
0000
0010
0100
0000
0100
,
0000
0100
1000
0000
1000
0001
0000
0001
,
1000
0100
0010
0100
1000
0000
0010
0100
0000
0101
0000
0000
0002
0000
0203
0000
,
0301
0100
0010
0100
0001
0000
0010
0100
0000
1100
0000
0000
2000
0000
3200
0000
,
0310
0001
0100
0001
0010
0000
0100
1000
0000
1100
0000
0000
2000
0000
3020
0000
,
0130
0001
1000
0001
0100
0000
0001
0010
0000
0011
0000
0000
0001
1000
0001
1000
,
0001
0100
0001
0100
0010
1000
0010
1000
,
0001
1000
0001
1000
0010
0100
0010
0100
,
0001
0010
0100
1000
0001
0100
0010
1000
,
0001
0010
0100
1000
0100
0010
0001
1000
,
0001
0100
0001
0100
0010
1000
0010
1000
,
0100
1000
0100
1000
0100
0010
0100
0010
,
0001
0010
0100
1000
0010
0100
0001
0010
,
0100
1000
0100
0010
0001
0100
0010
1000
,
0001
0010
0100
1000
0000
0000
1001
0000
,
1000
0010
0100
0001
0000
0000
1001
0000
,
0001
0100
0010
1000
0000
0000
0110
0000
,
1000
0100
0010
0001
0000
0000
0110
0000
,
1000
0100
0010
0100
0000
0000
1100
0000
,
0100
0010
0001
0010
0000
0000
0011
0000
,
0001
0100
0010
0100
0000
0000
0101
0000
,
0010
1000
0100
0010
0001
0100
0010
1000
,
2002
0000
0000
3003
;

//---------------dance-single - TRICKY----------------
#NOTES:
     dance-single:
     TRICKY:
     Medium:
     6:
     0.350,0.381,0.067,0.015,0.000:
0000
0000
0000
0000
,
0000
0000
0000
0000
,
0000
0000
0000
0000
,
0000
0000
0000
0000
,
1000
0100
0010
0000
,
0100
0010
0001
0000
,
0010
0001
0100
0000
,
0001
0100
0010
1000
,
0001
0001
0001
1000
,
1000
1000
0010
0110
,
0010
0010
0010
0100
,
0100
0100
0001
0010
,
0100
0100
0100
1000
,
1000
1000
0001
0101
,
0100
0100
0100
0001
,
0001
0001
1000
0001
,
1000
0100
1000
0001
,
0100
0001
1000
1001
,
0001
0010
0001
1000
,
0010
1000
0001
0010
,
0100
1000
0100
0010
,
0001
0010
0100
0110
,
0100
1000
0010
1000
,
0100
0010
0001
1000
,
0001
0000
0001
0000
,
0001
0000
0001
0000
,
0100
0000
0100
0000
,
0100
0000
0100
0000
,
0010
0000
1000
0000
,
0001
0000
0100
0000
,
0001
0000
0010
0000
,
0100
0000
1000
0000
,
0001
0001
0001
0001
,
0100
0100
0100
0100
,
0010
1000
0001
0100
,
0001
0010
0100
1000
,
0010
0010
0010
0010
,
1000
1000
1000
1000
,
0001
0100
0010
1000
,
0001
1000
0010
0100
,
0001
0001
0001
0010
,
0010
0010
0100
1100
,
1000
1000
1000
0010
,
0010
0010
0100
0001
,
0010
0010
0010
0100
,
0100
0100
1000
1001
,
0001
0001
0001
1000
,
1000
1000
0010
0100
,
0001
0100
0001
1000
,
0010
1000
0001
1001
,
0100
0001
0100
0010
,
1000
0010
0100
0001
,
0010
0001
0010
0100
,
1000
0100
0010
0011
,
0001
0100
0001
1000
,
0010
1000
0001
0010
,
0100
0000
0100
0000
,
1000
0000
1000
0000
,
0010
0000
0010
0000
,
0100
0000
0100
0000
,
0001
0001
0001
0000
,
1000
0000
0001
0000
,
1000
1000
1000
0000
,
0001
0000
1000
0000
,
0100
0100
1000
1000
,
0010
0010
0100
0100
,
0001
0001
0010
0010
,
0100
0100
1000
1000
,
0001
0001
0001
0100
,
0010
1000
0001
0100
,
0010
0010
0010
0100
,
0010
1000
0001
0100
,
0010
0000
0010
0000
0010
0000
0100
0100
,
0100
0000
0100
0000
0100
0000
0001
0001
,
0001
0000
0001
0000
0001
0000
1000
1000
,
1000
0000
1000
0000
1000
0000
0001
1000
,
0001
1000
0001
1000
,
0010
1000
0010
1000
,
0100
1000
0100
1000
,
0010
1000
0010
1000
,
0001
1000
0001
1000
,
0001
0100
0001
0100
,
0001
0010
0001
0010
,
0001
0100
0001
0100
,
0001
0010
0100
0000
,
0010
0100
1000
0000
,
0100
1000
0010
0000
,
1000
0010
0100
0000
,
0010
0100
0001
0000
,
0100
0001
0010
0000
,
0001
0010
0100
0000
,
0010
0100
1000
0001
,
2002
0000
0000
3003
;

//---------------dance-single - BASIC----------------
#NOTES:
     dance-single:
     BASIC:
     Easy:
     4:
     0.241,0.312,0.037,0.015,0.000:
0000
0000
0000
0000
,
0000
0000
0000
0000
,
0000
0000
0000
0000
,
0000
0000
0000
0000
,
1000
0000
1000
0000
,
0001
0000
0001
0000
,
0100
0000
0100
0000
,
0010
0010
0010
0000
,
1000
0000
0100
0000
,
0010
0000
0001
1000
,
0001
0000
0100
0000
,
0010
0000
1000
0010
,
1000
0000
0100
0000
,
0010
0000
0001
0100
,
0001
0000
0100
0000
,
0010
0000
1000
0100
,
1000
0000
1000
0000
,
0100
0000
0100
0010
,
0001
0000
0001
0000
,
0100
0000
0100
0010
,
1000
0000
0001
0000
,
0100
0000
0010
0100
,
0001
0000
0010
0000
,
0100
0000
1000
0001
,
1001
0000
1000
0000
,
1000
0000
1000
0000
,
1010
0000
0010
0000
,
0010
0000
0010
0000
,
0110
0000
0100
0000
,
0100
0000
0100
0000
,
0101
0000
0001
0000
,
0001
0000
0001
0000
,
0010
0010
0010
0010
,
0100
0100
0100
0100
,
0010
0010
0010
0010
,
0100
0100
0100
0100
,
1000
1000
1000
1000
,
0001
0001
0001
0001
,
1000
1000
1000
1000
,
0001
0001
0001
0001
,
1000
0000
0100
0000
,
1000
0000
0100
1000
,
0001
0000
0010
0000
,
0001
0000
0010
0001
,
0100
0000
0010
0000
,
0100
0000
0010
1000
,
0001
0000
1000
0000
,
0001
0000
1000
0010
,
0100
0000
0100
0000
,
0010
0000
0010
0100
,
0001
0000
0001
0000
,
1000
0000
1000
0010
,
0100
0000
0001
0000
,
0010
0000
0100
1000
,
0001
0000
0100
0000
,
0010
0000
1000
0001
,
1000
0000
0000
0000
,
0001
0000
0000
0000
,
0100
0000
0000
0000
,
0010
0000
0000
0000
,
1000
0000
1000
0000
,
1000
0000
0000
0000
,
0001
0000
0001
0000
,
0001
0000
0000
0000
,
1000
0000
0001
0000
,
0100
0000
0010
0000
,
1000
0000
0100
0000
,
0010
0000
0001
0000
,
1000
1000
1000
0000
,
0001
0000
1000
0000
,
0001
0001
0001
0000
,
1000
0000
0001
0000
,
1000
1000
1000
0000
,
0010
0010
0010
0000
,
0100
0100
0100
0000
,
0001
0001
0001
0000
,
1000
0000
0100
0000
,
0010
0000
0001
0000
,
1000
0000
0010
0000
,
0100
0000
0001
0000
,
1000
0100
0010
0001
,
1000
0010
0100
0001
,
1000
0100
0010
0001
,
1000
0010
0100
0001
,
1000
0000
1000
0000
,
0010
0000
0010
0000
,
0100
0000
0100
0000
,
0001
0000
0001
0000
,
0010
0000
0010
0000
,
0100
0000
0100
0000
,
1000
0000
1000
0000
,
0001
1000
0001
0000
,
2002
0000
0000
3003
;

//---------------dance-single - SIMPLE----------------
#NOTES:
     dance-single:
     SIMPLE:
     Beginner:
     1:
     0.117,0.172,0.007,0.000,0.000: // measure 1
0000
0000
0000
0000
,  // measure 2
0000
0000
0000
0000
,  // measure 3
0000
0000
0000
0000
,  // measure 4
0000
0000
0000
0000
,  // measure 5
1000
0000
0000
0000
,  // measure 6
0001
0000
0000
0000
,  // measure 7
0100
0000
0000
0000
,  // measure 8
0010
0000
0000
0000
,  // measure 9
1000
0000
0000
0000
,  // measure 10
1000
0000
0000
0000
,  // measure 11
0001
0000
0000
0000
,  // measure 12
0001
0000
0000
0000
,  // measure 13
0100
0000
0000
0000
,  // measure 14
0100
0000
0000
0000
,  // measure 15
0010
0000
0000
0000
,  // measure 16
0010
0000
0000
0000
,  // measure 17
1000
0000
0000
0000
,  // measure 18
0100
0000
0000
0000
,  // measure 19
0010
0000
0000
0000
,  // measure 20
0001
0000
0000
0000
,  // measure 21
0001
0000
0000
0000
,  // measure 22
0010
0000
0000
0000
,  // measure 23
0100
0000
0000
0000
,  // measure 24
1000
0000
0000
0000
,  // measure 25
0001
0000
0001
0000
,  // measure 26
0001
0000
0000
0000
,  // measure 27
1000
0000
1000
0000
,  // measure 28
1000
0000
0000
0000
,  // measure 29
0010
0000
0010
0000
,  // measure 30
0010
0000
0000
0000
,  // measure 31
0100
0000
0100
0000
,  // measure 32
0100
0000
0000
0000
,  // measure 33
0001
0000
0000
0000
,  // measure 34
0001
0000
0000
0000
,  // measure 35
1000
0000
0000
0000
,  // measure 36
1000
0000
0000
0000
,  // measure 37
0010
0000
0010
0000
,  // measure 38
0100
0000
0100
0000
,  // measure 39
0001
0000
1000
0000
,  // measure 40
0001
0000
1000
0000
,  // measure 41
0001
0000
0000
0000
,  // measure 42
0010
0000
0000
0000
,  // measure 43
0001
0000
0000
0000
,  // measure 44
1000
0000
0000
0000
,  // measure 45
0100
0000
0000
0000
,  // measure 46
1000
0000
0000
0000
,  // measure 47
0001
0000
0000
0000
,  // measure 48
0100
0000
0000
0000
,  // measure 49
0001
0000
0000
0000
,  // measure 50
1000
0000
0000
0000
,  // measure 51
0010
0000
0000
0000
,  // measure 52
0100
0000
0000
0000
,  // measure 53
0001
0000
0000
0000
,  // measure 54
0010
0000
0000
0000
,  // measure 55
0100
0000
0000
0000
,  // measure 56
1000
0000
0000
0000
,  // measure 57
0001
0000
0000
0000
,  // measure 58
0001
0000
0000
0000
,  // measure 59
0001
0000
0000
0000
,  // measure 60
0001
0000
0000
0000
,  // measure 61
0010
0000
0010
0000
,  // measure 62
0010
0000
0000
0000
,  // measure 63
0100
0000
0100
0000
,  // measure 64
0100
0000
0000
0000
,  // measure 65
1000
0000
0000
0000
,  // measure 66
1000
0000
0000
0000
,  // measure 67
1000
0000
0000
0000
,  // measure 68
1000
0000
0000
0000
,  // measure 69
0010
0000
0010
0000
,  // measure 70
0010
0000
0000
0000
,  // measure 71
0100
0000
0100
0000
,  // measure 72
0100
0000
0000
0000
,  // measure 73
0001
0000
0001
0000
,  // measure 74
0010
0000
0010
0000
,  // measure 75
0100
0000
0100
0000
,  // measure 76
1000
0000
1000
0000
,  // measure 77
0001
0000
0000
0000
,  // measure 78
0010
0000
0000
0000
,  // measure 79
0100
0000
0000
0000
,  // measure 80
1000
0000
0000
0000
,  // measure 81
0001
0000
0100
0000
,  // measure 82
0010
0000
1000
0000
,  // measure 83
0001
0000
0010
0000
,  // measure 84
0100
0000
1000
0000
,  // measure 85
0001
0000
0000
0000
,  // measure 86
1000
0000
0000
0000
,  // measure 87
0001
0000
0000
0000
,  // measure 88
1000
0000
0000
0000
,  // measure 89
0010
0000
0000
0000
,  // measure 90
0100
0000
0000
0000
,  // measure 91
0010
0000
0000
0000
,  // measure 92
0100
0000
0000
0000
,  // measure 93
1001
0000
0000
0000
;
