#TITLE:Ragnarok;
#SUBTITLE:[Arcana Heart 3];
#ARTIST:Motoharu Yoshihira;
#TITLETRANSLIT:;
#SUBTITLETRANSLIT:;
#ARTISTTRANSLIT:;
#GENRE:;
#CREDIT:;
#MENUCOLOR:;
#METERTYPE:DDR;
#BANNER:ragnarok.png;
#BACKGROUND:ragnarok-bg.png;
#LYRICSPATH:;
#CDTITLE:!hiryuu.png;
#MUSIC:ragnarok.ogg;
#OFFSET:0.020;
#SAMPLESTART:0.000;
#SAMPLELENGTH:18.116;
#SELECTABLE:YES;
#LISTSORT:;
#BPMS:0.000=212.000;
#STOPS:;
#BGCHANGES:;
#ATTACKS:;

//---------------dance-single - SMANIAC----------------
#NOTES:
     dance-single:
     SMANIAC:
     Challenge:
     10:
     0.901,1.000,0.510,0.414,0.686: // measure 1
0000
0000
0000
0000
,  // measure 2
0000
0000
0000
0000
,  // measure 3
0000
0000
0000
0000
,  // measure 4
0000
0000
0000
0000
,  // measure 5
0011
0000
0000
0010
0001
0000
0010
0001
,  // measure 6
0100
0010
1000
0000
0100
0000
1100
0000
,  // measure 7
0200
0000
0320
0000
,  // measure 8
0031
0000
2002
0000
0000
3003
0001
0010
,  // measure 9
0100
1000
0100
0010
0100
1000
0100
1000
,  // measure 10
0001
1000
0001
0100
0001
1000
0001
1000
,  // measure 11
0010
0100
0010
1000
0010
0100
0010
0100
,  // measure 12
0001
0010
0001
1000
0001
0010
0001
0010
,  // measure 13
0001
0010
0001
0010
0001
0100
0001
0100
0001
1000
0001
1000
,  // measure 14
0010
0000
1000
0000
0010
0000
1000
0000
0100
0000
1000
0000
0100
0000
0000
1000
0000
0000
1100
0000
0000
0000
0000
0000
,  // measure 15
1100
0000
1001
0000
0000
0101
0000
0000
,  // measure 16
0011
0000
0000
1100
0000
0000
1001
0000
,  // measure 17
1001
0000
0001
0010
0001
0100
0010
2000
,  // measure 18
0000
3100
0010
0002
0000
0103
0010
0100
,  // measure 19
0020
0000
0000
0000
0000
0000
1030
0000
0001
1000
0001
0000
0010
0000
0200
0000
,  // measure 20
0000
1300
0001
0020
0000
0031
1000
0001
,  // measure 21
2000
0000
0100
0000
0000
0010
0000
0000
,  // measure 22
0100
0000
0000
0010
0000
0000
0001
0000
,  // measure 23
0000
0000
0100
0000
0000
0010
0000
0000
,  // measure 24
0100
0000
0000
0010
0000
0000
3001
1000
,  // measure 25
1001
0000
0001
0010
0100
1000
0010
0200
,  // measure 26
0000
0300
0110
0000
0010
1000
0100
0020
,  // measure 27
0000
0030
0110
0000
0010
0001
1000
0010
,  // measure 28
0000
0200
0001
0320
0000
1030
0100
1000
,  // measure 29
0002
0000
0010
0000
0000
0100
0000
0000
,  // measure 30
0010
0000
0000
1000
0000
0000
0010
0000
,  // measure 31
0000
0000
0100
0000
0000
0010
0000
0000
,  // measure 32
1000
0000
0000
0100
0000
0000
1003
0001
,  // measure 33
1001
0000
0011
0000
0001
0100
0010
1000
,  // measure 34
1100
0000
1000
0010
0100
0001
0011
0000
,  // measure 35
0001
1000
0010
0100
0110
0000
0010
0100
,  // measure 36
0001
1000
1001
0000
1000
0010
0100
0001
,  // measure 37
0101
0000
0001
0010
0100
1000
1010
0000
,  // measure 38
1000
0100
0010
0001
0011
0000
0001
0100
,  // measure 39
0010
1000
1100
0000
1000
0001
1000
0001
,  // measure 40
1001
0000
0000
0110
0000
0000
1001
0000
,  // measure 41
0001
0010
0001
0010
0001
0010
0100
1000
0100
1000
0100
1000
,  // measure 42
0001
0100
0001
0100
0001
0100
0010
1000
0010
1000
0010
1000
,  // measure 43
0001
1000
0001
1000
0001
1000
0010
0100
0010
0100
0010
0100
,  // measure 44
0001
1000
0001
1000
0001
1000
0001
0100
0001
0100
0001
0100
,  // measure 45
0001
0010
0001
0010
0001
0010
0100
1000
0100
1000
0100
1000
,  // measure 46
0010
0100
0010
0100
0010
0100
0001
1000
0001
1000
0001
1000
,  // measure 47
0100
1000
0100
1000
0100
1000
0001
0010
0001
0010
0001
0010
,  // measure 48
0001
0010
0100
1000
0100
0020
0002
0000
0000
0033
0000
0000
,  // measure 49
0001
0010
0001
0010
0001
0010
0001
0010
0100
1000
0100
0010
,  // measure 50
0001
1000
0001
1000
0001
1000
0001
0100
0010
1000
0010
0100
,  // measure 51
0001
0100
0001
0100
0001
0100
0001
0010
0100
1000
0100
0010
,  // measure 52
0001
0100
0001
0100
0001
0100
0001
0010
0001
0010
0001
0010
,  // measure 53
0100
1000
0100
1000
0100
1000
0100
0010
0001
0010
0100
1000
,  // measure 54
0100
0010
0100
0010
0100
0010
0100
1000
0100
0010
0001
0010
,  // measure 55
0100
1000
0100
1000
0100
1000
0100
1000
0010
0100
0001
0100
,  // measure 56
0001
0010
0100
1000
0100
0020
0002
0000
0000
0033
0000
0000
,  // measure 57
2002
0000
0000
3003
0000
0000
0001
0000
0100
0000
0010
0000
,  // measure 58
2000
0000
0000
0000
0000
3100
1000
0010
,  // measure 59
0200
0000
0000
0000
0000
0301
0010
0100
,  // measure 60
1001
0000
0010
0110
0000
0001
1000
0100
,  // measure 61
0020
0000
0000
0000
0030
0001
0000
0100
,  // measure 62
0202
0303
2020
3030
,  // measure 63
2002
0000
0000
0000
3003
0100
0000
0010
,  // measure 64
1000
0000
0000
0001
0000
0000
1000
0000
0000
0001
0000
0000
1000
0000
0100
0000
0010
0000
0001
0000
0010
0000
0100
0000
,  // measure 65
1000
0000
0000
1100
0000
0000
1000
0000
0010
0000
0100
0000
,  // measure 66
0101
0000
0001
0000
1001
1000
0100
0010
,  // measure 67
0110
0000
0010
0000
0011
0001
0100
0010
,  // measure 68
0110
0000
0001
1001
0000
1000
0010
0100
,  // measure 69
0110
0000
0010
0000
1010
1000
0000
0100
,  // measure 70
1100
0100
0011
0010
,  // measure 71
2002
0000
0000
3003
,  // measure 72
1000
0100
1000
0010
0100
0001
0010
0001
,  // measure 73
0100
0001
0100
0001
1000
0001
1000
0100
,  // measure 74
1000
0010
1000
0010
0100
0001
0100
0001
,  // measure 75
0010
0001
1000
0001
1000
0100
1000
0100
,  // measure 76
0010
0001
0010
0001
0100
0001
1000
0010
,  // measure 77
1000
0001
0100
0001
1000
0100
1000
0100
,  // measure 78
0010
0001
0100
0010
1000
0001
0010
0001
,  // measure 79
1000
0010
1000
0100
0010
0001
0010
0100
,  // measure 80
2000
0000
0000
0000
0000
0000
0000
0000
3001
1000
0001
0000
1001
0000
0000
0000
,  // measure 81
0002
0000
0000
0000
0000
0000
0000
0000
1003
0001
1000
0000
1001
0000
0000
0000
,  // measure 82
2000
3200
0320
0032
,  // measure 83
0203
0010
0302
0010
,  // measure 84
2003
0000
0000
0000
0010
0000
0000
0000
3001
1000
0001
0000
1001
0000
0000
0000
,  // measure 85
0110
0000
0000
0010
1000
0000
0010
0100
,  // measure 86
0001
0010
0100
0000
1000
0000
0001
0000
,  // measure 87
2000
0000
3002
0000
,  // measure 88
0103
0000
0220
0000
0330
0000
0010
1000
,  // measure 89
0100
1000
0100
1000
0001
0010
0001
0010
,  // measure 90
0001
1000
0001
1000
0010
0100
0010
0100
,  // measure 91
0001
0010
0001
0100
0010
1000
0100
1000
,  // measure 92
0010
0100
0001
0010
0100
1000
0100
0010
,  // measure 93
0001
0010
0001
0010
0001
0010
0001
0100
0001
0100
0001
0100
,  // measure 94
0010
0000
1000
0000
0010
0000
1000
0000
0010
0000
1000
0000
0100
0000
0000
1000
0000
0000
1100
0000
0000
0000
0000
0000
,  // measure 95
1010
0000
0110
0000
0000
1001
0000
0000
,  // measure 96
0011
0000
0000
1100
0000
0000
1001
0000
,  // measure 97
2002
0000
0000
0000
,  // measure 98
3003
0000
0000
0000
;
