#TITLE:Pluto the First;
#SUBTITLE:[Wings of Light Edit];
#ARTIST:WHITE WALL;
#TITLETRANSLIT:;
#SUBTITLETRANSLIT:;
#ARTISTTRANSLIT:;
#CREDIT:;
#BANNER:pluto1st.png;
#BACKGROUND:pluto1st-bg.png;
#LYRICSPATH:;
#CDTITLE:!hiryuu.png;
#MUSIC:pluto1st.ogg;
#OFFSET:0.000;
#SAMPLESTART:18.781;
#SAMPLELENGTH:15.855;
#SELECTABLE:YES;
#BPMS:0.000=115.000,47.000=50.000,55.000=200.000,97.000=220.000,117.000=110.000,118.000=220.000,150.000=110.000,162.500=114.500,176.500=220.000;
#STOPS:34.750=0.522
,95.250=0.150
,95.750=0.150
,96.250=0.150
,96.750=0.150
,106.500=0.273
,138.500=0.273
,149.500=1.091
,151.000=0.136
,152.500=0.136
,154.500=0.136
,156.000=0.409
,157.500=0.136
,159.000=0.136
,161.000=0.136
,162.500=0.393
,164.000=0.131
,165.500=0.131
,167.500=0.131
,169.250=0.131
,169.750=0.262
,170.500=0.131
,172.000=0.131
,174.000=0.131
,175.500=0.131
,177.500=0.136
,178.500=0.136
,181.500=0.136
,184.500=0.136
,185.000=0.273
,188.000=0.136
,192.000=0.136
,194.500=0.273
,200.500=0.136
,201.500=0.273
,203.000=0.136
,204.000=0.273
,207.000=0.273
,208.250=0.273
,209.250=0.273
,210.250=0.273
,211.500=0.273
,212.500=0.273
,213.500=0.273
,214.000=0.136
;
#BGCHANGES:;

//---------------dance-single - SMANIAC----------------
#NOTES:
     dance-single:
     SMANIAC:
     Challenge:
     13:
     0.987,1.000,0.478,0.179,1.000:
0000
0000
0000
0000
,
0000
0000
0000
0000
,
0000
0000
0000
0000
,
1000
0010
0001
0001
0010
1000
1000
0100
,
0001
0001
0100
1000
1000
0010
0100
0100
,
0001
0010
0010
0100
1000
1000
0001
1000
,
0001
0100
0010
0000
0010
0000
1000
0100
0010
0000
0010
0000
0001
1000
0100
0000
,
0100
0000
1000
0001
0100
0000
0100
0000
0001
0100
1000
0000
1000
0000
1000
0100
,
0001
0000
0001
0000
0001
0010
1000
0000
1000
0000
0010
0001
1000
0001
0001
0100
,
0001
0001
1000
0001
0001
0100
0001
0001
0010
0001
0001
0100
0001
0001
0010
0001
,
0001
0100
0001
0001
1000
0010
0010
0001
0010
0010
1000
0010
0010
0001
0010
0010
,
1000
0000
0100
0000
0100
0000
0001
0000
0100
0000
0100
0000
1000
0000
0100
0000
0100
0000
0001
0000
0100
0000
0100
0000
1000
0000
0100
0010
0001
0010
0001
0000
,
1000
0100
0010
0001
1000
0000
0100
0000
1000
0000
0001
0100
0010
1000
0100
0000
0010
0001
0010
0100
1000
0000
0001
0000
1000
0000
1100
0000
0100
0000
1100
0000
,
1000
0001
0010
0001
0100
0000
0001
0000
0100
0000
0101
0000
0001
0000
0101
0000
0100
0001
1000
0010
1000
0000
0010
0000
1000
0000
0010
0000
1000
0000
0010
0000
,
1000
0010
1000
0010
1000
0001
1000
0001
1000
0001
1000
0001
0100
0001
0100
0001
,
0100
0001
0100
0001
1000
0001
1000
0001
1000
0001
1000
0001
1000
0100
1000
0100
,
1000
0100
1000
0100
0010
0100
0010
0100
0010
0100
0010
0100
0010
0001
0010
0001
,
0010
0001
0010
0001
0100
0010
0100
0010
0100
0010
0100
0010
1000
0100
0010
0001
,
0010
0100
1000
0100
0010
0001
0010
0100
1000
0100
0010
0001
1000
0010
0100
0001
,
1000
0100
0010
0001
1000
0010
0100
0001
1000
0100
0010
0001
1000
0100
1000
0100
,
0010
0001
0010
0001
0100
0010
0100
0010
1000
0001
1000
0001
0010
0001
0010
0001
,
0100
0010
0100
0010
1000
0100
1000
0100
1000
0001
1000
0001
0010
0001
0010
0001
,
0100
0010
0100
0010
1000
0100
1000
0100
1000
0001
1000
0001
0010
0100
1000
0010
,
0100
0001
0010
0100
1000
0010
0100
0001
0010
0100
1000
0010
0100
0001
0010
0100
,
1000
0100
0010
0001
1001
0000
0001
0000
0001
0000
0010
0000
0100
0000
0100
0000
,
0010
1001
1000
1001
0001
1001
1000
1001
,
1000
0001
0001
1001
0001
0100
0110
0010
,
0100
1000
1000
0100
0010
0110
0100
0110
,
0010
0110
0100
0110
0010
0100
0001
0110
,
0100
0000
0010
0000
0110
0100
0010
0001
1000
0000
1100
0000
0100
0000
1100
0000
,
1000
1100
0100
0010
0001
0010
0100
1100
,
1000
1100
0100
1100
1000
1100
0100
0010
,
0100
1100
1000
0100
0010
0001
1100
0010
,
1000
1100
1100
0001
1000
1100
0100
1100
,
1000
1100
0100
1100
1000
1100
0011
0001
,
0010
0011
0010
0001
0011
0011
0011
0001
,
1000
0011
0011
0001
0011
0010
0011
0001
,
0011
0000
1000
0000
0001
0000
0011
0000
1000
0100
0010
0100
1000
0100
0010
0001
,
0010
0100
1000
0010
0100
0001
0010
0100
1000
0001
0100
0001
0100
0010
1000
0100
,
0010
0001
0100
0010
1000
0100
0010
0001
0010
0001
0100
0010
1000
0100
1000
0010
,
0100
0001
0010
0001
0100
0010
1000
0010
0100
0001
1000
0000
0001
0010
0100
1000
,
0100
0010
0001
0100
0010
1000
0010
0100
0001
0010
0001
0100
0010
1000
0100
0010
,
0100
1000
0010
0100
0001
0010
0100
1000
0001
1000
0001
0010
0001
0100
0010
1000
,
0100
1000
0010
0100
0001
0010
0001
0100
0010
1000
0010
0100
0001
0010
0001
1000
,
0001
1000
0001
0000
0010
0000
1000
0000
0010
0000
0001
0000
0100
0000
1000
0000
,
0100
0010
0001
0010
1000
0100
0001
0100
,
1000
0001
1001
1000
0010
0001
0010
1000
,
0100
0010
0001
0010
1000
0010
0001
0100
,
1000
0100
0010
1000
0010
0001
1000
0100
,
0001
0100
1000
0100
0100
1000
0100
0001
,
0010
1000
0010
0001
1000
0100
0001
0100
,
0010
0000
0001
0000
0100
0000
1000
0000
0100
0000
0010
0000
1000
0000
0001
0010
,
0100
1000
0010
0100
0001
1000
0001
0100
0010
1000
0100
0010
0001
0000
1000
0000
,
0010
0110
0010
0011
1010
2000
3200
0302
,
0203
2300
3200
0320
0032
0203
2300
3200
,
0302
0023
0230
2300
3200
0320
0032
0003
;

//---------------dance-single - MANIAC----------------
#NOTES:
     dance-single:
     MANIAC:
     Hard:
     10:
     0.631,0.836,0.080,0.020,0.358:
0000
0000
0000
0000
,
0000
0000
0000
0000
,
0000
0000
0000
0000
,
1000
0100
1000
0001
0010
0001
1000
0010
,
1000
0001
0100
0001
1000
0100
0010
0001
,
0010
0100
1000
0010
0100
0001
0100
0010
,
1000
0100
1000
0000
0100
0000
1000
0100
1000
0000
0100
0000
1000
0001
1000
0000
,
0001
0000
1000
0001
1000
0000
0001
0000
0100
0001
0100
0000
0001
0000
0100
0001
,
0100
0000
0001
0000
0010
0001
0010
0000
0001
0000
0010
0001
0100
0010
0000
0010
,
1000
0000
1000
0100
0000
0100
0010
0000
0010
0001
0000
0001
0100
0000
0100
1000
,
0000
1000
0100
0000
0100
0001
0000
0001
0010
0000
0010
0100
0000
0100
1000
0000
,
1000
0000
0010
0000
0000
0000
0010
0000
0001
0000
0000
0000
0001
0000
0010
0000
0000
0000
0010
0000
1000
0000
0000
0000
0001
0000
0000
0010
0000
0000
0100
0000
,
0000
1000
0000
0000
0100
0000
1100
0000
0100
0000
0000
1000
0000
0000
0100
0000
0000
0010
0000
0000
0001
0000
0011
0000
0001
0000
0010
0000
0100
0000
1000
0000
,
0010
0100
0001
1000
0100
0010
0001
0100
0010
1000
0100
0010
0001
0000
0100
0000
,
0001
0100
0001
0100
0001
0100
0010
1000
,
0010
1000
0010
1000
0010
1000
0001
1000
,
0001
1000
0001
1000
0001
1000
0010
0100
,
0010
0100
0010
0100
0010
0100
0001
0010
,
0100
1000
0100
0010
0001
1000
0100
0010
,
0001
0010
0100
1000
0001
1000
0001
0010
,
0100
0010
0001
1000
0100
0010
0100
1000
,
0001
1000
0100
1000
0001
0010
0001
0100
,
0001
1000
0010
1000
0100
1000
0001
0100
,
0001
0010
0001
1000
0100
1000
0001
0010
,
0100
1000
0001
0010
0100
1000
0100
0010
,
0100
1000
0100
0010
0001
0010
0100
0010
,
0001
0010
0100
1000
0100
0010
0001
0100
,
0010
1000
0100
1000
0010
0100
0001
0010
,
0001
0100
0010
1000
0100
1000
0010
0100
,
0001
0000
0010
0000
0001
1000
0001
1000
0001
0000
0010
0000
0100
0000
1000
0000
,
0100
0010
0001
0010
0001
0100
0010
0100
,
0010
1000
0100
1000
0010
0100
0001
0010
,
0001
0100
0010
1000
0100
1000
0010
0100
,
0001
0010
0001
0100
0010
0100
0001
0010
,
0001
0100
0010
1000
0001
1000
0001
0100
,
0010
1000
0010
0100
0001
1000
0100
0010
,
0001
0010
0100
1000
0001
1000
0010
0100
,
0001
0000
0010
0000
0001
0000
1000
0000
0001
0000
0100
0000
0001
1000
0000
0010
,
0000
1000
0000
0000
0010
0000
1000
0000
0010
0000
1000
0001
0000
0100
0000
0001
,
0000
0000
0010
0000
0001
0000
0010
0100
0000
0010
0000
0100
0000
0000
1000
0000
,
0100
0000
1000
0000
0100
1000
0000
0001
0000
1000
0000
0000
0001
0000
0010
0000
,
0001
1000
0000
0100
0000
1000
0100
1000
0100
0000
1000
0000
0010
0000
0100
0010
,
0000
0100
0000
0001
0100
0000
0001
0100
0001
0100
0000
0001
0000
0100
0000
0010
,
1000
0000
0100
0000
0010
0000
0001
0000
1000
0100
0000
1000
0000
0010
0100
0000
,
0010
0000
1000
0001
1000
0001
1000
0100
,
0010
0001
0010
0100
1000
0100
0010
0001
,
1000
0001
1000
0100
0010
0100
1000
0100
,
0010
0001
0010
0100
0010
0001
1000
0001
,
1000
0010
0001
0010
1000
0001
1000
0100
,
0001
0100
1000
0010
0001
0010
1000
0001
,
1000
0001
0010
0001
0100
0010
1000
0100
,
1000
0010
0001
0010
1000
0001
1000
0000
,
0000
1100
0000
0000
0000
0110
0000
0000
0000
0011
0000
0000
0000
0000
1100
0000
,
0000
0110
0000
0011
0002
2000
0000
0000
,
0000
0000
0000
0000
,
0000
0000
0000
0000
,
3003
0000
0000
0000
;

//---------------dance-single - TRICKY----------------
#NOTES:
     dance-single:
     TRICKY:
     Medium:
     8:
     0.324,0.557,0.020,0.080,0.129:
0000
0000
0000
0000
,
0000
0000
0000
0000
,
0000
0000
0000
0000
,
1000
0000
0000
1000
0000
0000
0001
0000
,
0000
0001
0000
0000
0010
0000
0000
0010
,
0000
0000
0100
0000
0000
0100
0000
0000
,
1000
1000
1000
0001
0001
0001
0100
0100
,
0100
0010
0010
0010
1000
0100
1000
0001
,
0010
0000
0001
0000
1000
0000
0100
0000
0010
0000
0100
0000
1000
0000
0000
0100
,
0000
0000
1000
0000
0000
0100
0000
0000
0010
0000
0000
0001
0000
0000
0010
0000
,
0000
0001
0000
0000
1000
0000
0000
0100
0000
0000
0010
0000
0000
0001
0000
0000
,
0010
0000
0000
0100
0000
0000
1000
0000
0000
0001
0000
0000
1000
0000
0100
0000
,
1000
0000
0100
1000
0100
0000
0010
0000
0001
0000
0010
0001
0010
0000
0001
0000
,
0100
0000
0010
1000
0010
0000
1000
0000
0100
0000
0010
0001
0010
0000
0000
0000
,
0010
0001
0001
0100
,
0100
0000
0010
0000
0010
0000
1000
0100
,
1000
0000
0100
1000
0100
0000
0010
0001
,
0010
0000
0001
0010
0001
0000
1000
0000
,
1000
0100
0100
0010
,
0010
0000
0001
0000
0001
0000
1000
0100
,
1000
0000
0001
0010
0001
0000
1000
1000
,
1000
0000
0001
0001
0001
0000
0100
0100
,
0100
0000
0010
0010
0010
0000
1000
0000
,
0100
0010
0001
2002
,
0000
3003
1000
0000
0000
0100
0000
0000
,
0010
0000
0000
0001
0000
0000
0010
0000
,
0001
0100
0001
1000
,
0000
0100
0000
0000
1000
0000
0000
0010
,
0000
0100
0001
0010
,
0001
0000
0100
0000
0010
0000
0000
1000
,
0000
0000
0100
0000
0000
1000
0000
0000
,
0010
0100
0001
0010
,
0001
0100
0010
1000
,
0100
1000
0010
0001
,
0010
1000
0100
1000
,
0000
0100
0000
0000
0010
0000
0000
0001
,
0000
1000
0010
0100
,
0001
0000
0000
0000
1000
0000
0000
0000
0001
0000
0000
0000
1000
0000
0000
0001
,
0000
0000
0000
0000
0000
0000
0100
0000
0000
0000
0010
0000
0000
0100
0000
0000
,
0000
0000
0001
0000
0000
0000
0010
0000
0000
0100
0000
0000
0000
0000
0000
0000
,
1000
0000
0000
0000
0001
0000
0000
1000
0000
0000
0000
0000
0001
0000
0000
0000
,
0010
0000
0000
0100
0000
0000
0000
0000
0000
0000
1000
0000
0000
0000
0100
0000
,
0000
0010
0000
0000
0000
0001
0000
0000
1000
0000
0000
0100
0000
0000
0000
1000
,
0000
0000
0100
0000
0000
0000
1000
0000
0000
0100
0000
0000
0000
0010
0000
0000
,
0001
1000
0100
0010
,
0000
0001
0000
0100
0000
0000
0010
0000
,
1000
0000
1001
0000
1000
0000
0000
0100
,
0000
0010
0000
0000
0001
0000
0000
1000
,
0000
0001
0000
0000
1000
0000
0001
0000
,
0000
0100
0000
0000
0010
0000
0000
2000
,
0000
0000
0000
3000
0002
0000
0000
0000
,
0003
2000
0000
0000
0000
0000
3010
0000
,
0000
0020
0000
0000
0000
0100
0000
0000
0000
0100
0000
0000
0000
0000
0230
0000
,
0000
0010
0000
0010
0320
0000
0000
0000
,
0000
0000
0000
0000
,
0000
0000
0000
0000
,
0030
0000
0000
0000
;

//---------------dance-single - BASIC----------------
#NOTES:
     dance-single:
     BASIC:
     Easy:
     4:
     0.156,0.294,0.030,0.100,0.000: // measure 1
0000
0000
0000
0000
,  // measure 2
0000
0000
0000
0000
,  // measure 3
0000
0000
0000
0000
,  // measure 4
1000
0000
0000
1000
,  // measure 5
0000
0000
0001
0000
,  // measure 6
0000
0001
0000
0000
,  // measure 7
1000
0000
0000
1000
0000
0000
0001
0000
,  // measure 8
0000
0001
0000
0000
0100
0000
0000
0100
,  // measure 9
0000
0000
0010
0000
0000
0010
1000
0000
,  // measure 10
0000
0100
0000
0000
0010
0000
0000
0001
,  // measure 11
0000
0000
1000
0000
0000
0010
0000
0000
,  // measure 12
0100
0000
0000
0001
0000
0000
1000
0000
,  // measure 13
0000
0001
1001
0000
0000
0001
0011
0000
,  // measure 14
0000
0100
0110
0000
0000
0100
1000
0000
,  // measure 15
0000
1000
0000
0100
,  // measure 16
0000
0100
0000
0010
,  // measure 17
0000
0001
0000
0100
,  // measure 18
0000
0010
0000
1000
,  // measure 19
0000
1000
0000
0001
,  // measure 20
0000
0001
0000
0100
,  // measure 21
0000
0010
0000
1000
,  // measure 22
0000
0001
0000
0100
,  // measure 23
0000
0010
0000
1000
,  // measure 24
0000
0001
0000
1000
,  // measure 25
0000
0001
0000
0001
,  // measure 26
0000
0010
0000
0010
,  // measure 27
0000
0100
0000
0100
,  // measure 28
0000
1000
0000
1000
,  // measure 29
0000
0010
0000
0010
,  // measure 30
0000
0100
0001
0000
,  // measure 31
0010
0000
0100
0000
,  // measure 32
1000
0000
0010
0000
,  // measure 33
0100
0000
0001
0000
,  // measure 34
0010
0000
0100
0000
,  // measure 35
1000
0000
0001
1000
,  // measure 36
0000
0010
0000
0100
,  // measure 37
0000
0001
0000
1000
,  // measure 38
0000
0100
2000
0000
,  // measure 39
0000
0000
3000
0002
0000
0000
0000
0000
,  // measure 40
0003
0200
0000
0000
0000
0000
0000
0300
,  // measure 41
0020
0000
0000
0000
0000
0030
2000
0000
,  // measure 42
0000
0000
0000
0000
3000
0200
0000
0000
,  // measure 43
0000
0000
0000
0300
0020
0000
0000
0000
,  // measure 44
0000
0030
0002
0000
0000
0000
0000
0003
,  // measure 45
0000
1000
0000
0000
0000
0000
0000
0001
,  // measure 46
0000
0000
0000
0100
,  // measure 47
0000
0000
0000
0010
0000
0000
0000
0000
,  // measure 48
0000
1000
0000
0000
,  // measure 49
0000
0100
0000
0000
0000
0000
0000
0010
,  // measure 50
0000
0000
0000
0000
0000
0000
0000
0001
,  // measure 51
0000
0000
1000
0000
,  // measure 52
0000
0010
0000
0000
0000
0000
0000
2000
,  // measure 53
0000
0000
0000
0000
,  // measure 54
0000
0000
0002
3003
;
