#TITLE:Phi-Dentity Crisis;
#SUBTITLE:;
#ARTIST:Blitz Lunar;
#TITLETRANSLIT:;
#SUBTITLETRANSLIT:;
#ARTISTTRANSLIT:;
#GENRE:;
#CREDIT:;
#MENUCOLOR:;
#NEWMETERSYSTEM:NO;
#BANNER:phicri.png;
#BACKGROUND:phicri-bg.png;
#LYRICSPATH:;
#CDTITLE:!hiryuu.png;
#MUSIC:phicri.ogg;
#OFFSET:0.000;
#SAMPLESTART:38.917;
#SAMPLELENGTH:15.621;
#SELECTABLE:YES;
#LISTSORT:;
#BPMS:0.000=155.000,2.000=150.000,4.000=145.000,4.333=135.000,4.667=125.000,5.000=115.000,5.333=105.000,5.667=95.000,6.000=85.000,6.333=80.000,6.667=75.000,7.000=70.000,7.333=65.000,7.667=60.000,8.000=55.000,8.333=50.000,8.667=45.000,9.000=105.000,9.250=112.000,9.500=119.000,9.750=130.000,10.000=138.900,169.500=69.450,172.250=55.000,172.750=50.000,173.250=45.000,173.750=42.000,174.250=40.000,174.750=36.000,175.250=40.000,176.000=50.000,176.750=45.000,177.000=40.000,177.250=37.000,177.500=50.000,178.250=45.000,178.500=40.000,178.750=37.000,179.000=50.000,179.750=45.000,180.000=40.000,180.250=37.000,180.500=50.000,181.250=45.000,181.500=40.000,181.750=37.000,182.000=50.000,182.750=45.000,183.000=40.000,183.250=37.000,183.500=50.000,184.250=45.000,184.500=40.000,184.750=37.000,185.000=50.000,185.750=45.000,186.000=40.000,186.250=37.000,186.500=50.000,187.250=45.000,187.500=40.000,187.750=37.000,188.000=50.000,188.750=45.000,189.000=40.000,189.250=37.000,189.500=50.000,190.250=45.000,190.500=40.000,190.750=37.000,191.000=100.000,192.500=90.000,193.000=85.000,193.500=80.000,194.000=75.010,194.500=70.010,197.500=138.900,312.500=155.000,313.000=160.000,313.500=165.000,314.000=170.000,314.500=175.000,315.000=180.000,315.500=138.900,319.500=155.000,320.000=160.000,320.500=165.000,321.000=170.000,321.500=175.000,322.000=180.000,322.500=138.900,326.500=155.000,327.000=160.000,327.500=165.000,328.000=170.000,328.500=175.000,329.000=180.000,329.500=138.900,332.500=155.000,333.000=160.000,333.500=165.000,334.000=170.000,334.500=175.000,335.000=180.000,335.500=138.900,338.500=165.000,339.000=170.000,339.500=175.000,340.000=180.000,340.500=185.000,341.000=190.000,344.500=195.000,345.250=200.000,346.000=205.000,346.750=210.000,347.500=215.000,348.250=220.000,349.000=230.000,349.750=240.000,350.500=250.000,356.000=255.000,363.000=260.000,364.500=280.000,366.000=300.000,367.500=320.000,369.000=340.000,370.500=360.000,384.000=380.000,387.000=420.000,390.000=440.000,393.000=460.000,396.000=480.000,412.000=500.000,496.000=520.000,572.500=500.000,573.000=480.000,573.500=460.000,574.000=440.000,574.500=420.000,575.000=400.000,575.500=380.000,576.000=360.000,576.500=340.000,577.000=320.000,577.500=300.000,578.000=280.000,578.500=260.000,579.000=240.000,579.500=220.000,580.000=200.000,580.500=180.000,581.000=160.000,581.250=150.000,581.500=140.000,581.750=130.000,582.000=120.000,582.250=110.000,582.500=100.000,582.750=95.000,583.000=90.000,583.250=85.000,583.500=80.000,583.750=75.000,584.000=73.000,584.250=69.450;
#STOPS:175.875=2.730
;
#BGCHANGES:;
#ATTACKS:;

//---------------dance-single - SMANIAC----------------
#NOTES:
     dance-single:
     SMANIAC:
     Challenge:
     12:
     0.937,1.000,0.535,0.555,1.000: // measure 1
1000
0100
0010
0001
0100
0010
1000
0100
0010
0001
0100
0010
,  // measure 2
1000
0100
0010
0001
0100
0010
1000
0100
0010
0001
0010
0100
,  // measure 3
1000
0000
0000
0000
0001
0000
0000
0000
0010
0000
0000
0000
0200
0000
0000
0000
0000
0000
0000
0000
0000
0000
0000
0000
1300
0000
0000
0100
0000
0000
0010
0000
0000
0001
0000
0000
0010
0000
0000
0100
0000
0000
1000
0000
0000
0100
0000
0000
,  // measure 4
0010
0001
0010
0100
1000
0010
0100
0001
0100
0010
1000
0010
0100
0001
0100
0010
,  // measure 5
1000
0100
0010
0001
0100
0010
1000
0100
0010
0001
0100
0010
1000
0001
0010
0100
,  // measure 6
1000
0000
0000
0001
0000
0000
1000
0000
0000
0100
0000
0000
0010
0000
0000
0001
0000
0000
1000
0000
0000
0001
0000
0000
1000
0000
0001
0000
1000
0000
0001
0000
1000
0000
0001
0000
1000
0000
0010
0000
0100
0000
0010
0000
0100
0000
0010
0000
,  // measure 7
0100
0001
0100
0001
0100
0001
0010
0001
0010
0001
0010
0001
0010
0100
0010
0100
,  // measure 8
0010
0100
1000
0100
2000
0000
0000
0000
3001
0000
0000
0000
1000
0001
0000
1000
,  // measure 9
0001
0000
0010
0000
0011
0000
0000
0110
0000
0000
1000
0100
0000
1000
0100
0000
,  // measure 10
1000
0000
1010
0000
0000
0010
0100
0001
0010
0100
0000
1000
0000
0000
0001
1000
,  // measure 11
0001
0000
0000
0101
0000
0000
0100
0001
0000
1000
0010
0000
1000
0000
0100
0000
,  // measure 12
0000
1000
0100
0010
0002
0000
0003
0000
0101
0000
0000
1100
0000
0000
0101
0000
,  // measure 13
0010
0110
0000
0001
1001
1000
0100
0110
,  // measure 14
0002
0003
0010
0110
0100
1000
0110
0110
,  // measure 15
0000
0000
0000
0000
1000
0000
0000
0000
0000
0000
0000
0001
0000
0000
0000
0000
0000
1001
0000
0000
0000
0000
0000
0000
0000
0101
0000
0000
0000
1100
0000
0000
,  // measure 16
0000
0000
0000
0101
0000
0000
0000
0000
0000
0011
0000
0000
0000
0000
0000
0000
0000
1010
0000
0000
0000
0000
0000
0011
0000
0000
0000
0000
0000
1001
0000
0000
,  // measure 17
0000
0110
0000
0000
0000
0000
0000
0000
0000
1001
0000
0000
0000
0000
0000
0000
0000
1100
0000
0000
0000
0101
0000
0000
0000
0000
0000
1100
0000
0000
0000
0000
,  // measure 18
0000
1010
0000
0000
0000
0000
0000
0000
0000
0011
0000
0000
0000
1010
0000
0000
0000
1001
0000
0000
0000
0110
0000
0000
0000
1001
0000
0000
0000
0000
0000
0000
,  // measure 19
0000
1100
0000
0000
0000
0000
0000
0000
0000
0110
0000
0000
0000
0110
0000
0000
0000
0110
0000
0000
0000
0000
0000
0000
0000
0011
0000
0000
0000
0000
0000
0000
,  // measure 20
0000
0101
0000
0000
0000
0000
0000
0000
0000
0110
0000
0000
0000
0000
0000
0000
0000
0000
1001
0000
0000
0000
0000
0000
1001
0000
0000
0000
0000
0000
0110
0000
,  // measure 21
0000
0000
0110
0000
0000
1001
0000
1001
0000
1100
0000
0000
1100
0000
0000
0011
,  // measure 22
0000
0000
0011
0000
0000
0002
0000
2003
0000
3001
0000
0010
0001
0000
0100
0000
,  // measure 23
0020
0000
0000
0000
1030
0000
0010
0100
0000
0010
0000
1000
0100
0000
0010
0000
,  // measure 24
0200
0000
0000
1300
0000
1100
0000
0000
0000
1000
0010
0000
0010
0001
0000
0001
,  // measure 25
0010
0000
0010
1000
0000
1000
0100
0000
0100
0010
0000
0010
0001
1000
0001
1000
,  // measure 26
0001
1000
0000
0100
1000
0000
0010
0000
0200
0000
0000
0000
0310
0000
0100
0001
,  // measure 27
0000
0000
0010
0000
0000
0000
0001
0000
0100
0000
0000
0000
0010
0000
0000
0000
1000
0000
0000
0000
0001
0000
1000
0000
0000
0000
0000
1001
0000
0000
0000
1000
,  // measure 28
0000
0000
0000
0100
0000
0000
0000
1100
0000
0000
0000
1000
0000
0000
0000
0010
0000
1000
0000
0010
0000
0000
0000
1010
0000
0000
0000
1000
0000
0000
0000
0100
,  // measure 29
0000
0000
0000
1100
0000
0000
0000
1000
0000
0000
0000
0010
0000
0000
0000
1010
0000
0000
0000
1000
0000
0000
0000
1001
0000
0000
0000
1001
0000
0000
0000
1001
,  // measure 30
0000
0000
0000
1000
0000
0100
0000
0010
0000
0001
0000
0010
0000
0100
0000
1000
0000
0100
0000
1000
0000
0100
0000
0001
0000
0100
0000
0001
0000
0100
0000
1000
,  // measure 31
0000
0100
0000
1000
0000
0010
0000
1000
0000
0010
0000
1000
0000
0001
0000
1000
0000
0001
0000
0020
0000
0000
0000
0000
0000
0000
0000
0031
0000
0100
0000
0001
,  // measure 32
0000
0100
0000
0001
0000
0000
0000
0000
0000
0000
0000
0001
0000
0010
0000
0100
0000
0010
0000
0001
0000
0010
0000
0100
0000
1000
0000
0100
0000
0000
0000
1000
,  // measure 33
0000
0010
0000
0001
0000
0010
0000
1000
0000
0000
0000
0100
0000
0010
0000
0001
0000
0010
0000
0100
0000
0010
0000
0001
0000
1000
0000
2000
0000
0000
0000
3001
,  // measure 34
1000
0001
2000
0000
0000
0000
0000
0000
3000
0000
0000
0001
0000
0010
0000
0001
0000
0100
0000
0020
0000
0000
0000
0130
0010
0100
0020
0000
0000
0000
0030
1000
,  // measure 35
0010
1000
0020
0000
0000
0000
0000
1030
0000
0000
0000
0000
1010
0000
0000
0000
0000
0000
0000
0000
0001
0000
0010
0000
0100
0000
0010
0000
0001
0000
0000
0000
,  // measure 36
1000
0000
0100
0000
0010
0000
0001
0000
0010
0000
0100
0000
2000
0000
0000
0000
0000
0000
0000
0000
0000
3001
0000
0000
0000
0000
0000
0000
0000
0000
0010
0000
0000
0000
0000
0000
0001
0000
0000
0000
0000
0000
0200
0000
0000
0000
0000
0000
,  // measure 37
0000
0310
0000
0000
1000
0000
0100
0000
0020
0000
0000
0031
0000
0000
0100
0000
,  // measure 38
0010
0000
0002
0000
0000
0013
0000
0000
1000
0000
0001
0000
2002
3003
0000
1001
,  // measure 39
0000
0000
1000
0000
0100
0000
0220
0330
0000
0110
0000
0000
0010
0000
0001
0000
,  // measure 40
0022
0033
0000
0011
0000
0000
0202
0303
0000
0220
0330
0000
2020
3030
0000
2002
,  // measure 41
3003
0000
1000
0000
0000
1100
0000
0000
1000
0000
0010
0000
0100
0000
0000
0101
,  // measure 42
0000
0000
0001
0000
0010
0000
0000
0110
0000
0000
0100
0000
1000
0000
0001
0000
,  // measure 43
0000
0000
0000
1001
0000
0000
0000
0000
0000
0000
0000
0000
0001
0000
0000
0000
0000
0000
2000
0000
0000
3000
0000
0000
0200
0000
0000
0300
0000
0000
0020
0000
0000
0032
0000
0000
0003
0020
0000
0000
0030
0000
0002
0000
0000
0003
0000
0000
,  // measure 44
0020
0000
0230
0000
0300
0000
2000
0000
3000
0000
0020
0000
0030
0000
0200
0000
0300
0000
0002
0000
0003
0000
0020
0000
0030
0000
0200
0000
0300
0000
0000
2000
,  // measure 45
3001
0010
0001
0100
0010
1000
0100
1000
0010
0100
0001
0010
0001
1000
0100
1000
0010
0100
0001
0010
0001
0100
0010
1000
0100
1000
0010
0100
0001
0010
0001
0100
,  // measure 46
0010
1000
0100
1000
0001
0010
0001
0100
0010
1000
0100
0010
0001
0010
0100
1000
0010
0100
0001
0010
0001
0100
0010
1000
0100
1000
0010
0100
0001
0010
0100
1000
,  // measure 47
0010
0100
0001
0010
0100
0010
0001
1000
0100
1000
0100
0010
0001
0100
0010
1000
0100
0010
0100
1000
0010
0100
0001
0010
0001
0100
0010
1000
0100
1000
0010
0100
,  // measure 48
0010
1000
0100
1000
0010
0100
0001
0010
0001
0100
0010
1000
0001
0010
0100
1000
0100
0010
0001
1000
0100
0010
0001
1000
0001
0000
0010
0000
0001
0000
0100
0000
,  // measure 49
0010
0000
1000
0000
0100
0000
1000
0000
0001
0000
0010
0000
0100
0000
1000
0000
0100
0000
1000
0100
1000
0000
0000
0000
0001
0000
0000
0000
0010
0001
0100
0010
,  // measure 50
1000
0000
0000
0000
0100
0000
0000
0000
1000
0000
0000
0000
0100
0000
0000
0000
0000
0000
0000
0000
0000
0000
0000
0000
0000
0000
0000
0000
0000
0000
0000
0000
0000
0000
0000
0000
1000
0000
0000
0000
0000
0000
0000
0000
0000
0000
0000
0000
0001
0000
0000
0000
0000
0000
0000
0000
0000
0000
0000
0000
1000
0000
0000
0000
0000
0000
0000
0000
0000
0000
0000
0000
0000
0000
0000
0000
0000
0000
0000
0000
0000
0000
0000
0000
0000
0000
0000
0000
0000
0000
0000
0000
0000
0000
0000
0000
0000
0000
0000
0000
0000
0000
0001
0000
0000
0000
0000
0000
0000
0000
0000
0000
0000
0000
0010
0000
0000
0000
0000
0000
0000
0000
0000
0000
0000
0000
0001
0000
0000
0000
0000
0000
0000
0000
0000
0000
0000
0000
0000
0000
0000
0000
0000
0000
0000
0000
0000
0000
0000
0000
0010
0000
0000
0000
0000
0000
0000
0000
0000
0000
0000
0000
0000
0000
0000
0000
0000
0000
0000
0000
0000
0000
0000
0000
0001
0000
0000
0000
0000
0000
0000
0000
0000
0000
0000
0000
0010
0000
0000
0000
0000
0000
,  // measure 51
0000
0100
0000
1000
0000
0100
0000
0000
0000
1000
0000
0000
0000
0010
0000
0100
0000
0010
0000
0000
0000
0100
0000
0000
0000
0002
0000
0000
0000
0000
0000
0000
,  // measure 52
0000
1003
0000
0000
0000
0000
0000
0000
0000
2002
0000
0000
0000
3003
0000
0000
0000
0001
0000
0010
0000
0100
0000
1000
0000
0001
1000
0001
2000
0000
0000
0000
,  // measure 53
0000
0000
0000
0000
0000
3010
0000
0000
0000
0000
0000
0000
0000
0100
0000
0010
0000
1000
0000
0000
0000
0001
0000
0010
0000
0100
0000
0000
0000
1000
0000
0000
,  // measure 54
0000
0100
0000
1000
0000
0010
0000
0100
0000
0001
1000
0001
0000
1000
0000
0001
0000
1000
0001
1000
0000
0001
0000
1000
0000
0010
0000
0000
0000
0100
0000
0000
,  // measure 55
0000
0000
0000
0000
0000
0002
0000
0000
0000
0000
0000
0000
0000
1003
0000
0000
0000
0000
0000
0000
0000
0001
0000
0010
0000
0100
0000
1000
0000
0001
1000
0001
,  // measure 56
0000
1000
0001
1000
0000
0001
1000
0001
0000
1000
0000
0000
0000
0000
0000
0000
0000
0000
0010
0000
1000
0000
0100
0000
0000
0000
0010
0000
0001
0000
0100
0000
,  // measure 57
0000
0000
0020
0000
0000
0000
0000
0000
0000
0030
0100
0000
0000
0000
0001
0000
0000
0000
0010
0000
0100
0000
1000
0000
0000
0000
0110
0000
0000
0000
0000
0000
,  // measure 58
0101
0000
0000
0022
0000
0000
0000
0000
0000
0030
0000
0000
0000
2003
0000
0000
,  // measure 59
0000
0020
0000
0000
0000
0000
0000
3000
0100
0000
0000
0130
0000
0000
0000
0001
,  // measure 60
0000
0000
0010
0000
0100
0000
2000
0000
0000
0000
0000
0000
0000
0000
3200
0000
0000
0000
0000
0000
0000
0000
0310
0000
0001
0000
0100
0000
0010
0000
1000
0100
,  // measure 61
1000
0200
0000
0000
0000
1300
0000
0010
0000
0200
0000
0000
0000
0310
0000
0000
,  // measure 62
0010
0000
0000
0010
0000
0000
0010
0000
0000
0000
0000
1000
0000
0000
1000
0000
,  // measure 63
0000
0000
1000
0000
0000
0000
0000
0000
1000
0000
0000
0000
0000
0000
0000
0001
0000
0010
0000
0100
0000
1000
0000
0001
0000
0010
0000
0100
0000
1000
0000
0100
,  // measure 64
0000
0010
0000
0001
0000
1000
0000
0200
0000
0000
0000
0310
0000
0001
0000
1000
0000
0100
0000
0010
0000
0001
0000
0010
0000
0100
0000
1000
0000
0001
0000
0010
,  // measure 65
0000
0100
0000
1000
0000
0001
0000
0010
0000
0001
0000
1000
0000
0100
0000
0010
0000
0001
0000
1000
0000
0100
0000
0010
0000
0001
0000
0010
0000
0100
0000
2000
,  // measure 66
0000
0000
0000
3001
0000
0010
0000
0100
0000
1000
0000
0001
0000
0010
0000
0100
0000
1000
0000
0100
0000
1000
0000
0010
0000
0100
0000
0001
0000
0010
0000
0100
,  // measure 67
0000
1000
0000
0001
0000
0010
0000
0100
0000
1000
0000
0100
0000
0010
0000
0001
0000
1000
0000
0100
0000
0010
0000
0002
0000
0000
0000
1003
0000
0100
0000
0010
,  // measure 68
0000
0001
0000
0010
0000
0100
0000
1000
0000
0001
0000
0010
0000
0001
0000
1000
0000
0100
0000
1000
0000
0100
0000
0010
0000
0001
0000
0000
1000
0000
0010
0000
,  // measure 69
0100
0001
1000
0100
0010
0001
0010
0100
1000
0001
2000
0000
3001
0010
0100
1000
,  // measure 70
0001
0100
0010
1000
0100
0010
0001
0100
0010
1000
0001
0010
0100
1000
0001
0100
,  // measure 71
0010
1000
0001
0010
0100
1000
0200
0000
1300
0100
0010
0001
0100
0010
1000
0100
,  // measure 72
0010
0001
0010
0100
1000
0010
1000
0100
1000
0010
0100
0001
0010
0001
1000
0010
,  // measure 73
0100
0001
0020
0000
0031
1000
0100
0010
0001
0100
0010
1000
0100
0010
0001
0100
,  // measure 74
0010
1000
0100
0010
0001
0010
0100
1000
0001
0010
0001
1000
0100
1000
0001
0000
,  // measure 75
1001
0000
0000
0011
0000
0000
0110
0000
0000
1100
0000
0000
1010
0000
2002
0000
,  // measure 76
0003
0002
0000
3000
2000
3003
0001
0010
0100
1000
0100
0010
0001
1000
0100
0010
,  // measure 77
0001
0010
0100
1000
0001
0010
0001
0100
0010
1000
0100
1000
0001
0010
0002
0000
,  // measure 78
0000
1003
0100
0010
0100
1000
0100
0010
,  // measure 79
0100
100M
0100
0010
M001
0010
0100
100M
,  // measure 80
0100
0000
0001
0000
0100
0000
1000
0000
0100
0000
0001
0000
0100
0000
1000
01M0
,  // measure 81
1000
0000
0001
0M10
0001
0000
1000
01M0
1000
0000
0001
0000
0010
0000
1000
0000
,  // measure 82
0010
0001
0010
1000
0010
M001
0100
100M
,  // measure 83
0100
0001
M010
0001
0011
0001
0011
0001
,  // measure 84
0011
0000
0001
0000
10M1
0000
0001
0M00
1001
0000
0001
00M0
1001
0000
0001
0000
,  // measure 85
0101
0001
0101
0001
0101
0001
10M1
0001
,  // measure 86
1M01
0001
10M1
0002
0000
M000
0000
0000
,  // measure 87
0003
1M00
0000
0000
00M1
0000
0000
1M00
,  // measure 88
0000
0000
00M1
0000
0000
1M00
0000
0000
,  // measure 89
00M2
0000
0000
0000
,  // measure 90
2M00
0000
00M0
0000
0M00
0000
00M0
0MM0
,  // measure 91
0MM0
0MM0
0MM0
0MM0
3MM3
0000
10M0
0000
,  // measure 92
0M00
0001
00M0
0000
1M00
0000
00M0
0001
,  // measure 93
0M00
0000
10M0
0000
0M00
0001
0000
0000
,  // measure 94
100M
0100
0010
M001
0100
0010
100M
0100
,  // measure 95
0010
M001
0100
0010
100M
0100
0010
M001
,  // measure 96
0100
0010
100M
0100
0010
M001
0100
0010
,  // measure 97
1000
0M01
10M0
0M01
10M0
0M01
10M0
0M01
,  // measure 98
10M0
0M01
10M0
0M01
10M0
0M01
10M0
0M01
,  // measure 99
10M0
0M01
10M0
0M01
10M0
0M01
10M0
0M01
,  // measure 100
2MM2
0MM0
0MM0
0MM0
0MM0
0MM0
0MM0
0MM0
,  // measure 101
0MM0
0MM0
0MM0
0MM0
0MM0
0MM0
0MM0
0MM0
,  // measure 102
0MM0
0MM0
0MM0
0MM0
0MM0
0MM0
0MM0
0MM0
,  // measure 103
3MM3
MMMM
0000
0000
,  // measure 104
1MM1
0000
0000
0000
0000
0000
0000
0000
0000
0001
0000
0010
,  // measure 105
0000
0100
0000
100M
0000
0100
0000
0010
0000
0001
0000
1000
,  // measure 106
0000
0001
0000
0000
0000
0000
0000
MM11
0000
0000
0000
0000
,  // measure 107
0000
0000
0000
0000
0001
0000
0010
0000
0100
000M
1000
0000
,  // measure 108
0010
0000
0100
0000
0001
0000
0010
0000
0100
0000
0000
0000
,  // measure 109
0000
11MM
0000
0000
0000
0000
0000
0000
0000
0000
1000
0000
,  // measure 110
0010
0000
0100
0000
0001
0000
10M0
0000
0100
0000
0010
0000
,  // measure 111
0001
0000
1000
0000
0001
0000
0000
0000
1MM1
0000
0000
0000
,  // measure 112
0000
0000
0000
0000
0000
1000
0000
0100
0000
M010
0000
0001
,  // measure 113
0000
1MM1
0000
0000
0000
0000
0000
0000
0000
0001
0000
0M10
,  // measure 114
0000
MM11
0000
0000
0000
0000
0000
0000
0000
0000
0000
0001
,  // measure 115
0000
0010
0000
0100
0000
100M
0000
0100
0000
0010
0000
0001
,  // measure 116
0000
1000
0000
0100
0000
0000
0000
0000
11MM
0000
0000
0000
,  // measure 117
0000
0000
0000
0000
0000
1000
0000
0100
0000
0010
0000
0001
,  // measure 118
M000
0100
0000
0010
0000
1000
0000
0100
0000
0010
0000
0000
,  // measure 119
0000
1MM1
0000
0000
,  // measure 120
0001
0000
0010
0000
0100
0000
100M
0000
0010
0000
0100
0000
,  // measure 121
0001
0000
1000
0000
0001
0000
0000
0000
0000
1MM1
0000
0000
,  // measure 122
0000
0000
0000
0000
0000
0000
1000
0000
0100
0000
M010
0000
,  // measure 123
0100
0000
11MM
0000
0000
0000
0000
0000
0000
0000
0000
0000
,  // measure 124
1000
0000
00M1
0000
1000
0000
0000
0000
0001
0000
1M00
0000
,  // measure 125
00M2
0000
0000
0000
0000
0000
0000
0000
0000
0023
0M00
0000
0000
0000
0000
0000
0000
0000
M032
0000
0000
0000
0000
0000
,  // measure 126
0000
0000
00M0
0203
0000
0000
0000
0000
0000
0000
0000
0000
032M
0000
0000
0000
0000
0000
0000
0000
0000
2M30
0000
0000
,  // measure 127
0000
0000
302M
0000
0000
M230
0000
0000
,  // measure 128
032M
0000
0000
2M30
0000
0000
32M0
0000
,  // measure 129
0000
230M
0000
0000
3M20
0000
0000
023M
,  // measure 130
0000
0000
03M2
0000
0000
0M23
0000
0000
,  // measure 131
M230
0000
0000
032M
0000
0000
0M32
0000
,  // measure 132
0000
20M3
0000
0000
3M20
0000
0000
023M
,  // measure 133
0000
0000
M320
0000
0000
203M
0000
0000
,  // measure 134
3M20
0000
0000
0000
0000
0000
0000
0000
0000
0130
0000
0000
M00M
0010
0000
0000
0000
0100
0000
0000
0000
0000
0000
0000
,  // measure 135
0000
0000
0000
0000
0010
0000
0000
0000
M10M
0000
0000
0000
0020
0000
0000
0000
0000
0000
0000
0000
0000
2M30
0000
0000
,  // measure 136
0000
0000
32M0
0000
0000
032M
0000
0000
,  // measure 137
0M32
0000
0000
02M3
0000
0000
M302
0000
,  // measure 138
0000
20M3
0000
0000
3M02
0000
0000
M023
,  // measure 139
0000
0000
023M
0000
0300
11MM
0000
0000
,  // measure 140
1000
0000
0000
0100
0000
0000
M11M
0000
,  // measure 141
0000
0010
0000
0000
0001
0000
0000
MM11
,  // measure 142
0000
0000
0001
0000
0000
0100
0000
0000
,  // measure 143
M1M1
0000
0000
0010
0000
0000
1000
0000
,  // measure 144
0000
2M02
0000
00M0
0000
0M00
0000
00M0
,  // measure 145
0000
0M00
0000
00M0
0000
0M00
0000
00M0
,  // measure 146
0000
0M00
0000
00M0
0000
0M00
0000
00M0
,  // measure 147
0000
0000
0000
3003
0000
0000
0MM1
0000
1000
0MM0
1001
0000
0MM0
0000
0000
MMMM
0000
0000
0000
0000
0000
0000
0000
0000
0000
0000
0000
0000
0000
0000
0000
0000
0000
0000
0000
0000
0000
0000
0000
0000
0000
0000
0000
0000
0000
0000
0000
0000
;
