#TITLE:PARANOiA =iNSANiTY=;
#SUBTITLE:[Full Version] v2;
#ARTIST:DJ Bouche;
#TITLETRANSLIT:;
#SUBTITLETRANSLIT:;
#ARTISTTRANSLIT:;
#GENRE:;
#CREDIT:;
#BANNER:pifull3.png;
#BACKGROUND:pifull3-bg.png;
#LYRICSPATH:;
#CDTITLE:!hiryuu.png;
#MUSIC:PIFULL.mp3;
#OFFSET:-0.032;
#SAMPLESTART:23.298;
#SAMPLELENGTH:23.276;
#SELECTABLE:YES;
#DISPLAYBPM:*;
#BPMS:0.000=330.040,316.000=165.020,318.000=330.040,446.000=165.020,478.000=330.040;
#STOPS:827.500=0.364
;
#BGCHANGES:;
#KEYSOUNDS:;

//---------------dance-single - MANIAC----------------
#NOTES:
     dance-single:
     MANIAC:
     Hard:
     11:
     1.000,0.000,0.630,0.253,0.016:
0000
0000
0000
0000
,
0000
0000
0000
0000
,
0000
0000
0000
0000
,
0000
0000
0000
0000
,
0000
0000
0000
0000
,
0000
0000
0000
0000
,
0000
0000
0000
0000
,
0000
0000
0000
0000
,
1000
0010
0100
0001
,
0010
0001
0100
0010
,
1000
0010
0100
0001
,
0010
0100
0000
0000
0000
0000
0000
0000
,
0010
0001
0100
0010
,
1000
0100
0010
0001
,
1000
0000
0001
0000
0100
0000
0010
1000
,
0000
1000
0100
0000
0010
0001
1000
0000
,
0001
0001
1000
0010
,
0100
0010
1000
0100
,
0010
0100
0010
0001
,
0100
0010
0001
0010
,
1000
1000
0100
0010
,
0001
0100
0010
0100
,
0010
0100
0001
0010
0000
0100
0000
2000
,
0002
0000
0000
3003
,
0100
0100
0010
1000
,
0001
0010
0001
1000
,
0010
1000
0001
0100
,
0010
0100
0000
0000
0000
0000
0000
0000
,
0010
0010
0100
0001
,
1000
0100
0001
0200
,
2000
0000
0000
0000
0000
0000
0000
3300
,
1000
0000
0100
0000
1000
0100
1000
0000
,
0100
1000
0100
0000
1000
0100
1000
0000
,
0100
1000
0010
0100
0001
0010
0001
0000
,
1000
0001
1000
0001
0100
0010
2000
0000
,
0000
0000
3002
0000
,
0103
0010
0100
0000
0010
0100
0010
0000
,
1000
0010
0100
0001
0010
0100
1000
0000
,
0010
0100
0010
0100
0000
0010
0000
2000
,
0002
0000
0000
0000
0000
0000
0000
3003
,
1000
0010
1000
0000
0010
1000
0010
0000
,
1000
0010
0100
0001
0010
0001
0100
0000
,
0010
1000
0010
0100
0001
0010
0002
0000
,
0000
0000
2003
0000
,
3100
0010
0100
0000
0010
0001
0100
0000
,
0010
1000
0010
0100
0010
1000
0010
0000
,
0100
0001
0010
0001
0100
0010
1000
0000
,
0001
0010
0100
0000
1001
0000
0001
1000
,
0001
1000
0001
0100
0001
0100
0010
0000
,
1000
0100
1000
0010
1000
0010
0100
0000
,
0001
1000
1001
0001
,
1000
0001
0000
0000
0000
0000
0000
0000
,
1000
0100
1000
0010
0100
0010
0100
0000
,
0001
0010
0001
0100
0010
0100
0001
0000
,
0010
0100
1000
0010
0100
0000
0001
0010
,
0000
0100
1000
0000
0010
0100
0001
0000
,
1000
0010
1000
0001
0100
0001
1000
0000
,
0001
0100
0001
1000
0010
1000
0001
0000
,
0100
0011
0100
0110
,
0001
1000
0000
0000
0000
0000
0000
0000
,
0001
0100
0010
0000
1000
0010
1000
0010
,
0100
0001
0010
0000
0100
1000
0100
1000
,
0001
1000
0001
0000
1001
0000
1000
0000
,
0010
0100
0010
0000
0110
0000
0100
0000
,
0000
0001
0010
0100
,
1000
0001
0010
0001
,
0010
0000
0001
0000
0010
0000
0001
0100
,
0010
0000
1000
0000
0010
0100
0001
0000
,
1000
0001
0010
0100
,
1000
0001
0010
0001
,
0010
0000
0001
0100
0010
0000
1001
0000
,
0100
1001
0010
1001
,
0100
1000
0100
0010
,
0001
1000
0100
1000
,
0100
0000
1000
0000
0100
0000
1000
0010
,
0100
0001
0010
0000
0001
0000
0100
0000
,
0010
1000
0100
0010
,
0001
1000
0100
1000
,
0100
0000
1000
0000
0010
0100
0001
0000
,
1001
0000
1000
0001
0100
0000
0110
0000
1001
0000
0000
0000
1001
0000
0000
0000
,
1000
0010
0100
0000
0001
0100
0010
0000
,
1000
0010
0100
0000
0001
0100
0010
1000
,
0001
0010
0002
0000
0000
0000
0000
0000
,
0203
0000
0310
1010
,
1000
0010
0100
0000
0001
0000
0100
0000
,
0001
0100
0010
0000
1000
0010
0100
0001
,
0000
0100
0000
0020
0200
0000
0000
0000
,
0000
0000
0000
0330
1010
0000
1010
0000
,
1000
0100
0010
0000
0001
1000
0010
0000
,
1000
0100
0010
0001
1000
0000
0001
0100
,
0010
0000
1000
0000
0001
1000
0000
0000
,
0000
0000
0000
0000
1001
0000
0001
0100
,
0010
0000
1000
0000
0100
0010
0001
0000
,
1000
0001
2000
0002
,
0000
0000
0000
3003
,
1001
0000
0001
1000
0010
0100
0010
0100
,
0010
0100
0010
0000
1000
0001
1000
0001
,
1000
0001
1000
0000
0001
0000
1001
0000
,
0100
0000
0110
0000
0001
1000
0000
0000
,
0110
0000
1000
0010
0100
0001
0100
0001
,
0100
0001
0100
0000
0010
1000
0010
1000
,
0010
1000
0010
0000
1000
0100
0010
0000
,
0001
0000
0100
0010
0000
1000
0100
0000
,
0010
0001
1000
0000
0100
0010
1000
0010
,
0100
0001
0100
0000
1000
0001
0100
0001
,
1000
0010
1000
0000
0010
0000
0110
0000
,
0100
0000
1001
0000
0001
0010
0000
0000
,
0110
0000
0100
1000
0010
1000
0010
0100
,
0001
0100
0010
0000
1000
0001
0100
0010
,
1000
0001
1000
0000
0001
0100
0001
0000
,
1000
0010
0100
0000
0001
0010
0100
0000
,
1000
0000
0010
0100
0001
0100
0010
0100
,
0001
0100
0010
1000
0100
1000
0010
0100
,
0001
1000
0000
0000
0000
0000
0000
0000
1000
0000
0010
0000
0100
0000
0010
0000
,
1000
0000
0010
0000
0100
0000
0001
0000
0010
0000
0001
0000
0100
0000
0010
1000
,
0000
0100
0001
0000
1000
0010
1000
0000
0001
0000
0001
0000
0100
0000
0100
0000
,
0010
0010
1000
1000
0001
0100
0010
1000
,
0001
1000
0000
0000
0000
0000
0000
0000
0100
0000
0100
0000
0010
0000
0010
0000
,
0001
0001
0000
0000
1000
1000
0100
0100
,
0010
0010
0000
0000
1100
0000
0001
0000
,
1100
0010
1100
0001
,
1100
1100
1100
0010
,
0001
1100
0001
0010
,
1100
0001
1100
0001
,
1100
0010
1100
0010
,
1100
1100
1100
0010
,
0010
1100
0001
0001
,
1100
0100
0011
0100
,
0011
1000
0011
0100
,
0011
0011
0011
1000
,
0100
0011
0100
1000
,
0011
0100
0011
0100
,
0011
1000
0011
1000
,
0011
0011
0011
0100
,
0100
0011
1000
1000
,
2002
0000
0000
3003
0001
0010
0001
0010
,
1000
0010
1000
0010
0001
0010
0001
0010
,
1000
0010
1000
0010
0001
1000
0001
1000
,
0010
0100
0010
0100
0001
1000
0001
1000
,
0010
0100
0010
0100
0001
0010
0001
0010
,
0100
1000
0100
1000
0001
0010
0001
0010
,
0100
1000
0100
1000
0010
1000
0010
1000
,
0001
0100
0001
0100
0010
1000
0010
1000
,
0001
0100
0001
0100
0001
1000
0001
1000
,
0100
1000
0100
1000
0100
0010
0100
0010
,
0001
0010
0001
0010
0001
1000
0001
1000
,
0010
1000
0010
1000
0001
0100
0001
0100
,
0001
0010
0001
0010
0100
1000
0100
1000
,
0001
1000
0001
1000
0001
0010
0100
1000
,
0010
0100
0001
0010
0001
1000
0010
0100
,
0001
1000
0001
1000
1100
0000
0011
0000
,
1010
0101
1001
1001
,
0000
0000
0110
1001
,
0110
1001
0000
0000
,
1100
1100
0011
0011
,
1001
1001
0000
0000
,
0110
0110
0000
0000
,
1001
1001
0000
0000
,
0110
0000
1000
0001
0100
0001
1000
0100
,
0010
0001
1000
0000
0001
0100
0010
0100
,
0001
0000
0100
0010
0000
1000
0010
0000
,
0100
0001
0010
0000
0001
0000
0100
0010
,
1000
0000
0002
0000
0000
0203
0000
0000
,
0320
0000
1030
0010
0100
0000
0001
0010
,
0100
0000
1000
0001
0000
0001
1000
0000
,
0010
0100
0001
0000
0010
0100
1000
0000
,
1000
0000
0002
0000
0000
2003
0000
0000
,
3200
0000
0310
0001
1000
0010
1000
0010
,
1000
0010
0100
0000
0001
0010
0001
0010
,
0001
0010
0100
0000
0001
1000
0001
0000
,
0001
0000
2000
0000
0000
3020
0000
0000
,
0230
0000
0301
0000
1000
0001
1000
0000
,
0001
1000
0001
0000
0100
0010
0100
0000
,
0010
0100
0010
0000
1000
0100
0010
0000
,
0001
0000
0100
0010
0000
1000
0001
0000
,
1000
0100
0010
0001
1000
0000
0010
0100
,
0001
0000
0001
0100
0000
0100
0010
0000
,
1010
0000
1000
0000
0010
0100
0001
0010
,
0001
0000
0100
0010
0000
1000
0010
0000
,
0110
0000
0001
0000
0100
0000
0000
0010
,
0100
0000
0001
1000
0000
0010
0100
0000
,
0011
0000
0100
0000
0010
1000
0010
0100
,
0010
0000
1000
0010
0100
0000
0101
0000
,
0100
0010
1000
0000
0010
0100
0000
0001
,
0000
0100
0000
0010
0000
1000
0000
0010
,
0000
0100
0000
0001
0100
0010
0000
1000
,
0000
0010
0000
0100
0000
0001
0000
0010
,
0000
0001
0000
0100
0010
1000
0000
0010
,
0000
0100
0000
0001
0000
0010
0000
0001
,
0000
0100
0000
0010
1000
0010
0100
0000
,
0101
0000
0100
0010
1000
0010
0100
0000
,
0010
0100
0010
0100
0110
0000
0010
1000
,
0100
0000
0010
0001
0100
0000
0010
1000
,
0100
0000
0010
0001
0100
0000
0001
0010
,
0100
0000
1000
0010
0100
0000
0001
0010
,
0100
0000
1000
0010
0200
0000
0320
0000
,
0230
0320
1030
0000
,
1010
0000
0010
0000
,
1010
0000
1000
0000
,
1001
0000
0001
0100
,
0101
0000
0100
0001
,
0101
0000
0100
0010
,
0110
0000
0100
0010
,
0110
0000
0000
0000
1000
0001
0000
0100
,
0000
0010
0000
1000
0000
0100
0010
0000
,
0001
0000
0100
0001
0010
1000
0010
0001
,
1000
0000
0000
0000
0000
0000
0000
0000
0000
0000
0000
0000
0000
0000
0000
0000
0000
0000
0000
0000
0000
0000
0000
0000
0001
0000
0000
0000
0000
0000
0000
0000
0000
0000
0000
0000
0000
0000
0000
0000
0000
0000
0000
0000
0000
0000
0000
0000
0000
0000
0000
0000
0000
0000
0000
0000
0000
0000
0000
0000
0000
0000
0000
0000
0000
0000
0000
0000
0000
0000
0000
0000
0001
0000
0000
0000
0000
0000
0000
0000
0000
0000
0000
0000
0000
0000
0000
0000
0000
0000
0000
0000
0000
0000
0000
0000
0000
0000
0000
0000
0000
0000
0000
0000
0000
0000
0000
0000
0000
0000
0000
0000
0000
0000
0000
0000
0000
0000
0000
0000
0010
0000
0000
0000
0000
0000
0000
0000
0000
0000
0000
0000
0000
0000
0000
0000
0000
0000
0000
0000
0000
0000
0000
0000
0002
0000
0000
0000
0000
0000
0000
0000
0000
0000
0000
0000
0000
0000
0000
0000
0000
0000
0000
0000
0000
0000
0000
0000
0000
0003
0000
0000
0000
0000
0000
0000
0000
0000
0000
0000
0000
0000
0000
0000
0000
0000
0000
0000
0000
0000
0000
0000
,
0001
0000
1001
0000
1000
0010
0000
0100
,
0000
0110
0000
0010
0100
0000
0001
0000
,
0100
0000
0010
1000
0000
0010
0000
0100
,
0000
0001
0010
0000
0001
0000
1000
0001
,
1000
0000
1001
0000
1000
0010
0000
0011
,
0000
1010
0000
1000
0001
0000
1000
0100
,
0010
0000
0001
0100
0010
1000
0000
0001
,
0000
1000
0100
0010
0001
0000
0110
0000
,
1000
0000
0010
0000
0100
0001
0000
0100
,
0000
0010
1000
0001
0100
0000
0010
0001
,
0010
0000
0000
1000
0100
0010
0000
0100
,
0000
1000
0001
1000
0001
0000
1001
0000
,
0001
0100
0010
0000
1000
0100
0000
1100
,
0000
0110
0000
0010
0001
0000
1001
0000
,
1000
0010
0100
0001
0010
0001
0100
0010
,
1000
0100
0010
0001
1000
0001
1000
0000
,
1001
0002
0023
0230
,
0310
1000
0000
0000
0010
0100
0001
0010
,
0200
2300
3020
0230
,
0301
0010
0000
0000
0001
1000
0001
0100
,
0001
1000
0010
0100
0020
0000
0000
0000
,
0230
0000
0000
0000
0320
0000
0000
0030
,
1001
0010
1001
0010
,
1001
0010
1001
1001
,
1001
0100
0100
1001
,
0100
0100
1001
0010
,
1001
0100
1001
0010
,
1001
0100
1001
1001
,
1001
0100
0010
1001
,
0010
0100
1001
0000
,
1000
0001
0100
0001
0100
0010
1000
0000
,
0001
0100
0010
0100
0001
0100
0010
0000
,
1000
0010
0100
0001
0100
0000
0020
0000
,
0000
2030
0000
0000
3002
0000
1003
0010
,
0100
0001
0010
0001
0100
0010
1000
0010
,
0100
0001
0010
0100
1000
0010
0100
0002
,
2000
0000
0000
0000
,
0000
0000
0000
0000
,
0000
0000
0000
0000
,
0000
0000
0000
3003
0000
0000
0000
0000
;

//---------------dance-single - TRICKY----------------
#NOTES:
     dance-single:
     TRICKY:
     Medium:
     9:
     0.636,0.000,0.296,0.048,0.000: // measure 1
0000
0000
0000
0000
,  // measure 2
0000
0000
0000
0000
,  // measure 3
0000
0000
0000
0000
,  // measure 4
0000
0000
0000
0000
,  // measure 5
0000
0000
0000
0000
,  // measure 6
0000
0000
0000
0000
,  // measure 7
0000
0000
0000
0000
,  // measure 8
0000
0000
0000
0000
,  // measure 9
1000
0000
1000
0000
,  // measure 10
0001
0000
0001
0000
,  // measure 11
1000
0001
1000
0000
,  // measure 12
1001
0000
0000
0000
,  // measure 13
0010
0000
0010
0000
,  // measure 14
0100
0000
0100
0000
,  // measure 15
0010
0100
0010
0000
,  // measure 16
0100
0010
0100
0000
,  // measure 17
0001
0000
0001
0000
,  // measure 18
0010
0000
0010
0000
,  // measure 19
0100
1000
0100
1000
,  // measure 20
0000
0000
0001
0000
,  // measure 21
0100
0000
0100
0000
,  // measure 22
0010
0000
0010
0000
,  // measure 23
1000
0001
1000
0001
,  // measure 24
2000
0000
0000
0000
,  // measure 25
3001
0000
0001
0000
,  // measure 26
0010
0000
0010
0000
,  // measure 27
0100
1000
0100
1000
,  // measure 28
0000
0000
0001
0000
,  // measure 29
1000
0001
1000
0000
,  // measure 30
0010
0100
0010
0000
,  // measure 31
1000
0100
0010
0001
,  // measure 32
1000
0000
0001
0000
,  // measure 33
1000
0001
1000
0001
,  // measure 34
0100
0010
0100
0010
,  // measure 35
1000
0100
0010
0001
,  // measure 36
0000
0000
1000
0000
,  // measure 37
0001
0010
0001
0010
,  // measure 38
0100
1000
0100
1000
,  // measure 39
0010
0100
0001
0010
,  // measure 40
0220
0000
0000
0330
,  // measure 41
0100
1000
0100
1000
,  // measure 42
0010
0100
0010
0100
,  // measure 43
0001
0010
0100
1000
,  // measure 44
0000
0000
0001
0000
,  // measure 45
1000
0010
0100
0000
,  // measure 46
0001
0010
0100
0000
,  // measure 47
1000
0001
1000
0001
,  // measure 48
0100
0000
0110
0000
,  // measure 49
1001
0000
0001
0000
,  // measure 50
0101
0000
0100
0000
,  // measure 51
0010
0100
0010
0100
,  // measure 52
0010
0000
0000
0000
,  // measure 53
0110
0000
1000
0000
,  // measure 54
1100
0000
0100
0000
,  // measure 55
0010
0001
0010
0001
,  // measure 56
1000
0001
1000
0001
,  // measure 57
1001
0000
1000
0000
,  // measure 58
1100
0000
0100
0000
,  // measure 59
1000
0010
0100
0000
,  // measure 60
0001
0010
0000
0000
,  // measure 61
1000
0001
1000
0001
,  // measure 62
0100
0010
0100
0010
,  // measure 63
1000
0100
1000
0010
,  // measure 64
1000
0001
0010
0100
,  // measure 65
0000
1000
0100
1000
,  // measure 66
0010
0100
0001
0010
,  // measure 67
0001
0100
0010
0000
,  // measure 68
1000
0100
1000
0000
,  // measure 69
0000
0100
0010
0001
,  // measure 70
0100
0010
1000
0100
,  // measure 71
0010
0000
0000
0110
,  // measure 72
0000
1001
0000
0110
,  // measure 73
0000
1000
0010
0100
,  // measure 74
0001
0010
0001
0100
,  // measure 75
0010
1000
0001
0000
,  // measure 76
1000
0001
1000
0000
,  // measure 77
0000
0010
0100
0010
,  // measure 78
1000
0100
0010
0001
,  // measure 79
1000
0000
0001
1000
,  // measure 80
0001
0001
1000
0100
,  // measure 81
1000
0000
0001
0010
,  // measure 82
0001
0000
1000
0100
,  // measure 83
1000
0010
0100
0000
,  // measure 84
0100
0000
0010
0100
,  // measure 85
0001
0000
1000
0100
,  // measure 86
0010
0000
0000
0000
0001
0000
1000
0001
,  // measure 87
0000
1000
0000
0001
2000
0000
0000
0000
,  // measure 88
0000
0000
3001
0100
,  // measure 89
0010
0000
1000
0100
,  // measure 90
0010
0000
0001
0100
,  // measure 91
0010
1000
0001
0100
,  // measure 92
0010
0000
1000
0010
,  // measure 93
0100
0001
0010
0001
,  // measure 94
0100
0010
0000
2000
,  // measure 95
0000
0000
0000
3000
,  // measure 96
1001
0000
0001
0000
1000
0100
1000
0000
,  // measure 97
0100
0000
1000
0000
0100
1000
0100
0000
,  // measure 98
1000
0100
1000
0001
,  // measure 99
0010
0000
0001
0000
1000
0001
0000
0000
,  // measure 100
0000
0000
0000
0000
1000
0001
1000
0000
,  // measure 101
0001
0000
1000
0000
0001
1000
0001
0000
,  // measure 102
0100
0010
1000
0010
,  // measure 103
0100
0000
0001
0000
0010
0001
0010
0000
,  // measure 104
0100
1000
0010
0000
0100
0000
0010
0000
,  // measure 105
0100
0010
0100
0000
0010
0000
0100
0000
,  // measure 106
0010
0100
0010
0000
1000
0000
0001
0000
,  // measure 107
0100
0000
0010
0000
1000
0100
0000
0000
,  // measure 108
0000
0000
0010
0001
,  // measure 109
0100
0010
1000
0100
,  // measure 110
0010
0000
0001
0000
0100
0010
0100
0000
,  // measure 111
0010
0000
0100
0000
0010
0100
0010
0000
,  // measure 112
1000
0001
1000
1000
,  // measure 113
0001
0000
0001
0000
0100
0010
0100
0000
,  // measure 114
0010
0000
1000
1000
,  // measure 115
0001
0000
0001
0000
1000
0100
1000
0000
,  // measure 116
0001
0010
0001
0000
1000
0000
1000
0000
,  // measure 117
0001
0000
0001
0000
1000
0100
0010
0000
,  // measure 118
0001
0000
1000
1000
,  // measure 119
0001
0000
0001
0001
,  // measure 120
1000
0000
0001
0100
,  // measure 121
0001
0010
0001
1000
,  // measure 122
0001
0001
0001
0010
,  // measure 123
0010
0001
0100
0100
,  // measure 124
0001
1000
0001
0100
,  // measure 125
0001
0010
0001
1000
,  // measure 126
0001
0001
0001
1000
,  // measure 127
1000
0001
0010
0010
,  // measure 128
0001
0000
1000
0100
,  // measure 129
1000
0010
1000
0001
,  // measure 130
1000
1000
1000
0100
,  // measure 131
0100
1000
0010
0010
,  // measure 132
1000
0001
1000
0010
,  // measure 133
1000
0100
1000
0001
,  // measure 134
1000
1000
1000
0001
,  // measure 135
0001
1000
0010
0010
,  // measure 136
1000
0001
1001
0000
,  // measure 137
0110
0000
0011
0000
,  // measure 138
1100
0100
1100
0000
,  // measure 139
0000
1001
0000
0000
,  // measure 140
0011
0000
0110
0000
,  // measure 141
1100
0000
1001
0000
,  // measure 142
0011
0001
0101
0000
,  // measure 143
0000
0110
0000
0000
,  // measure 144
1100
0000
1001
0000
,  // measure 145
0110
0000
1001
0000
,  // measure 146
0110
0010
1010
0000
,  // measure 147
0000
0110
0000
0000
,  // measure 148
0001
0100
0010
1000
,  // measure 149
0100
0000
0010
0001
,  // measure 150
0100
0000
0010
0000
,  // measure 151
1000
0000
0001
0010
,  // measure 152
0100
1000
0001
0001
,  // measure 153
0000
0000
1000
1000
,  // measure 154
1000
1000
0000
0000
,  // measure 155
0010
0010
0010
0010
,  // measure 156
0010
0010
0000
0000
,  // measure 157
0100
0100
0000
0000
,  // measure 158
0010
0010
0000
0000
,  // measure 159
1000
0000
0001
1000
0001
1000
0001
1000
,  // measure 160
0001
1000
0001
1000
0001
0000
1000
0000
,  // measure 161
0010
0100
0001
0010
,  // measure 162
0100
1000
0001
0010
,  // measure 163
0001
0000
1000
0000
0000
0001
0000
0000
,  // measure 164
1000
0010
0100
0010
,  // measure 165
1000
0100
1000
0010
,  // measure 166
0001
0010
1000
0100
,  // measure 167
0001
0000
0100
0000
0000
1000
0000
0000
,  // measure 168
0010
0000
0100
0000
0001
1000
0001
0000
,  // measure 169
1000
0000
0001
0000
0100
0010
0100
0000
,  // measure 170
0010
0000
1000
0000
0100
0010
0001
0000
,  // measure 171
1000
0000
0001
0000
0000
0100
0000
0000
,  // measure 172
0010
1000
0001
0001
,  // measure 173
1000
0000
1000
0000
0010
0100
0010
0000
,  // measure 174
1000
0001
1000
0000
0010
0100
0010
0000
,  // measure 175
1000
0000
0001
0000
0000
0100
0000
0000
,  // measure 176
0010
1000
0001
0000
,  // measure 177
0101
0000
0100
0000
,  // measure 178
0110
0000
0010
1000
,  // measure 179
0010
0000
1000
0001
,  // measure 180
0100
0000
0001
0000
,  // measure 181
0011
0000
0010
0000
,  // measure 182
0110
0000
0100
1000
,  // measure 183
0010
0100
0001
0000
,  // measure 184
1000
0000
0001
0010
,  // measure 185
0001
1000
0001
0010
,  // measure 186
0001
0000
1000
0100
,  // measure 187
1000
0001
1000
0100
,  // measure 188
1000
0000
0010
1000
,  // measure 189
0010
0100
0001
0100
,  // measure 190
0010
0000
1000
0010
,  // measure 191
1000
0000
0001
0100
,  // measure 192
0001
0000
1000
0000
,  // measure 193
1001
0000
0001
0000
,  // measure 194
0101
0000
0100
0010
,  // measure 195
0110
0000
0010
0100
,  // measure 196
0110
0000
0001
1000
,  // measure 197
0001
1000
0001
0000
,  // measure 198
0101
0000
0100
0000
,  // measure 199
0101
0000
0001
0000
,  // measure 200
1000
0010
1010
0000
,  // measure 201
1000
0000
1010
0000
,  // measure 202
0010
0000
1010
0000
,  // measure 203
1000
0000
1010
0000
,  // measure 204
0010
0000
0100
0001
,  // measure 205
0100
0010
1000
0100
,  // measure 206
0010
0001
1000
0010
,  // measure 207
0100
0001
0010
0200
,  // measure 208
1300
0000
1000
0000
0001
0100
0000
0100
,  // measure 209
0000
0001
0000
0100
0010
0000
1000
0000
,  // measure 210
0010
0000
0100
0000
0001
0010
0000
0010
,  // measure 211
0000
0001
0000
0010
0100
0000
1000
0000
,  // measure 212
1000
0000
0100
0000
0100
1000
0000
1000
,  // measure 213
0000
0010
0000
0010
0100
0000
0100
0000
,  // measure 214
0001
1000
0001
0000
1000
0001
1000
0000
,  // measure 215
0010
0100
0010
0000
0100
0010
0100
0000
,  // measure 216
0001
0000
0000
0100
0010
0100
0000
0010
,  // measure 217
0000
0000
0000
1000
0001
0000
1000
0000
,  // measure 218
0001
0000
0000
0100
0010
0100
0000
0010
,  // measure 219
0000
0000
0000
1000
0001
1000
0001
0000
,  // measure 220
1000
1000
0001
0001
,  // measure 221
0100
0110
0010
0110
,  // measure 222
1000
0001
1000
0001
1000
0001
1000
0001
,  // measure 223
0100
0010
0100
0010
0100
0010
0100
0010
,  // measure 224
1000
0000
1000
0000
,  // measure 225
1000
0000
0000
0000
,  // measure 226
0001
0000
0001
0000
,  // measure 227
0001
0000
0000
0000
,  // measure 228
1000
0000
1001
0000
,  // measure 229
0110
0000
1001
0000
,  // measure 230
1002
0000
1000
0000
,  // measure 231
1000
0000
1000
1000
,  // measure 232
1000
0000
0000
1000
,  // measure 233
0000
0000
1000
0000
,  // measure 234
1000
0000
1000
0000
,  // measure 235
1000
0000
1000
1000
,  // measure 236
1000
0000
0000
1000
,  // measure 237
0000
0000
1000
0000
,  // measure 238
1003
0100
0010
0000
,  // measure 239
0001
0100
0010
0000
,  // measure 240
1000
0001
1000
0001
,  // measure 241
0100
0000
0110
0000
,  // measure 242
0001
0010
0100
1000
,  // measure 243
0100
0010
0001
1000
,  // measure 244
2002
0000
0000
0000
,  // measure 245
0000
0000
0000
0000
,  // measure 246
0000
0000
0000
0000
,  // measure 247
0000
0000
0000
3003
0000
0000
0000
0000
;

//---------------dance-single - BASIC----------------
#NOTES:
     dance-single:
     BASIC:
     Easy:
     5:
     0.344,0.000,0.091,0.022,0.000: // measure 1
0000
0000
0000
0000
,  // measure 2
0000
0000
0000
0000
,  // measure 3
0000
0000
0000
0000
,  // measure 4
0000
0000
0000
0000
,  // measure 5
0000
0000
0000
0000
,  // measure 6
0000
0000
0000
0000
,  // measure 7
0000
0000
0000
0000
,  // measure 8
0000
0000
0000
0000
,  // measure 9
1000
0000
0000
0000
,  // measure 10
0001
0000
0000
0000
,  // measure 11
1000
0000
0001
0000
,  // measure 12
1000
0000
0000
0000
,  // measure 13
0010
0000
0000
0000
,  // measure 14
0100
0000
0000
0000
,  // measure 15
0010
0000
0100
0000
,  // measure 16
0010
0000
0000
0000
,  // measure 17
1000
0000
0000
0000
,  // measure 18
1000
0000
0000
0000
,  // measure 19
1000
0000
1000
0000
,  // measure 20
1000
0000
0000
0000
,  // measure 21
0001
0000
0000
0000
,  // measure 22
0001
0000
0000
0000
,  // measure 23
0001
0000
0001
0000
,  // measure 24
0001
0000
0000
0000
,  // measure 25
0100
0000
0000
0000
,  // measure 26
0010
0000
0000
0000
,  // measure 27
0100
0000
0010
0000
,  // measure 28
0100
0000
0000
0000
,  // measure 29
0001
0000
1000
0000
,  // measure 30
0001
0000
0000
0000
,  // measure 31
1000
0000
0001
0000
,  // measure 32
1000
0000
0000
0000
,  // measure 33
0001
0000
0001
0000
,  // measure 34
1000
0000
1000
0000
,  // measure 35
0010
0000
0100
0000
,  // measure 36
0110
0000
0000
0000
,  // measure 37
1000
0000
0100
0000
,  // measure 38
0010
0000
0001
0000
,  // measure 39
1000
0000
0010
0000
,  // measure 40
0100
0000
0001
0000
,  // measure 41
1000
0000
1000
0000
,  // measure 42
0001
0000
0001
0000
,  // measure 43
1000
0000
0001
0000
,  // measure 44
0110
0000
0000
0000
,  // measure 45
0010
0000
0100
0000
,  // measure 46
1001
0000
0000
0000
,  // measure 47
0100
0000
0010
0000
,  // measure 48
1001
0000
0000
0000
,  // measure 49
1000
0000
1000
0000
,  // measure 50
0010
0000
0010
0000
,  // measure 51
0100
0000
0100
0000
,  // measure 52
0001
0000
0000
0000
,  // measure 53
0001
0000
0001
0000
,  // measure 54
0010
0000
0010
0000
,  // measure 55
0100
0000
0100
0000
,  // measure 56
1000
0000
0000
0000
,  // measure 57
0001
0000
1000
0000
,  // measure 58
0001
0000
0100
0000
,  // measure 59
0010
0000
1000
0000
,  // measure 60
0001
0000
0000
0000
,  // measure 61
1000
0000
0100
0000
,  // measure 62
0010
0000
0100
0000
,  // measure 63
1000
0000
0010
0000
,  // measure 64
0100
0000
0001
0000
,  // measure 65
1000
0000
1000
0000
,  // measure 66
0001
0000
0001
0000
,  // measure 67
1000
0000
0001
0000
,  // measure 68
1000
0000
0000
0000
,  // measure 69
0010
0000
0010
0000
,  // measure 70
0100
0000
0100
0000
,  // measure 71
0010
0000
0100
0000
,  // measure 72
0010
0000
0000
0000
,  // measure 73
1000
0000
1000
0000
,  // measure 74
1000
0000
1000
0000
,  // measure 75
0001
0000
0001
0000
,  // measure 76
0001
0000
0000
0000
,  // measure 77
0100
0000
0100
0000
,  // measure 78
0010
0000
0010
0000
,  // measure 79
1000
0000
0001
0000
,  // measure 80
1000
0001
1000
0001
,  // measure 81
1000
0000
0001
1000
,  // measure 82
0001
0000
1000
0001
,  // measure 83
1000
0000
0001
0000
,  // measure 84
0000
0000
0100
0010
,  // measure 85
0100
0000
0010
0100
,  // measure 86
0010
0000
0100
0010
,  // measure 87
0100
0000
0010
0000
,  // measure 88
0000
0000
1000
0000
,  // measure 89
1000
0000
0001
0000
,  // measure 90
0001
0000
0100
0010
,  // measure 91
0100
0000
0010
0000
,  // measure 92
0000
0000
1000
0000
,  // measure 93
1000
0000
0100
0000
,  // measure 94
0100
0000
0010
0000
,  // measure 95
0000
0000
0010
0000
,  // measure 96
0000
0000
0001
0000
,  // measure 97
0001
0000
0100
0000
,  // measure 98
0100
0000
0010
1000
,  // measure 99
0010
0000
1000
0000
,  // measure 100
0000
0000
0001
0000
,  // measure 101
0001
0000
1000
0000
,  // measure 102
1000
0000
0010
0100
,  // measure 103
0010
0000
0100
0010
,  // measure 104
0100
0000
0001
0000
,  // measure 105
0001
0000
1000
0000
,  // measure 106
1000
0000
0100
0000
,  // measure 107
0010
0000
0001
0000
,  // measure 108
0000
0000
1000
0000
,  // measure 109
0100
0000
1000
0000
,  // measure 110
0100
0000
0010
0000
,  // measure 111
0001
0000
0010
0000
,  // measure 112
0001
0000
1000
1000
,  // measure 113
0001
0001
1000
1000
,  // measure 114
0001
0000
0001
0001
,  // measure 115
0010
0010
0100
0100
,  // measure 116
1000
0000
0001
0100
,  // measure 117
0010
1000
0100
0010
,  // measure 118
0001
0000
1000
0010
,  // measure 119
0100
0000
0001
0010
,  // measure 120
0100
0000
0100
0000
,  // measure 121
0100
0000
0100
0000
,  // measure 122
0100
0100
0100
0000
,  // measure 123
0000
0100
0000
0000
,  // measure 124
0100
0000
0100
0000
,  // measure 125
0100
0000
0100
0000
,  // measure 126
0100
0100
0100
0000
,  // measure 127
0000
0100
0000
0000
,  // measure 128
0100
0000
0010
0000
,  // measure 129
0010
0000
0010
0000
,  // measure 130
0010
0010
0010
0000
,  // measure 131
0000
0010
0000
0000
,  // measure 132
0010
0000
0010
0000
,  // measure 133
0010
0000
0010
0000
,  // measure 134
0010
0010
0010
0000
,  // measure 135
0000
0010
0000
0000
,  // measure 136
0010
0000
0001
0000
,  // measure 137
1000
0000
0001
0000
,  // measure 138
1000
0001
1000
0000
,  // measure 139
0000
0001
0000
0000
,  // measure 140
1000
0000
0001
0000
,  // measure 141
1000
0000
0001
0000
,  // measure 142
1000
0001
1000
0000
,  // measure 143
0000
0001
0000
0000
,  // measure 144
1000
0000
0100
0000
,  // measure 145
0010
0000
0100
0000
,  // measure 146
0010
0100
0010
0000
,  // measure 147
0000
0100
0000
0000
,  // measure 148
0010
0100
0010
0100
,  // measure 149
0010
0000
0100
0010
,  // measure 150
0100
0000
0010
0000
,  // measure 151
0100
0000
0010
0100
,  // measure 152
0010
0100
1000
0001
,  // measure 153
0000
0000
1000
0001
,  // measure 154
1000
0001
0000
0000
,  // measure 155
1000
0001
1000
0001
,  // measure 156
1000
0001
0000
0000
,  // measure 157
1000
0001
0000
0000
,  // measure 158
1000
0001
0000
0000
,  // measure 159
1000
0001
1000
0001
,  // measure 160
1000
0001
1000
0000
,  // measure 161
1000
0000
0001
0000
,  // measure 162
0001
0000
0100
0000
,  // measure 163
0010
0000
0110
0000
,  // measure 164
0000
0000
0001
0000
,  // measure 165
1000
0000
0100
0000
,  // measure 166
1000
0000
0010
0000
,  // measure 167
0100
0000
0110
0000
,  // measure 168
0000
0000
1000
0000
,  // measure 169
0000
0000
1000
0000
,  // measure 170
0000
0000
0001
0000
,  // measure 171
0100
0000
0101
0000
,  // measure 172
0000
0000
0001
0000
,  // measure 173
0001
0000
0100
0000
,  // measure 174
0100
0000
0010
1000
,  // measure 175
0010
0000
1010
0000
,  // measure 176
0000
0000
1000
0000
,  // measure 177
0000
0000
1000
0000
,  // measure 178
0000
0000
0001
0000
,  // measure 179
0001
0000
0001
0000
,  // measure 180
0000
0000
0100
0000
,  // measure 181
0000
0000
0100
0000
,  // measure 182
0000
0000
0010
0000
,  // measure 183
0010
0000
0010
0000
,  // measure 184
0000
0000
1000
0000
,  // measure 185
1000
0000
1000
0000
,  // measure 186
0000
0000
0001
0000
,  // measure 187
0001
0000
0001
0000
,  // measure 188
0000
0000
0100
0000
,  // measure 189
0010
0000
0100
0000
,  // measure 190
0010
0000
1000
0000
,  // measure 191
1000
0000
0001
0000
,  // measure 192
0001
0000
1001
0000
,  // measure 193
0000
0000
0110
0000
,  // measure 194
0000
0000
1001
0000
,  // measure 195
0000
0000
0110
0000
,  // measure 196
0000
0000
2002
0000
,  // measure 197
0000
0000
3003
0000
,  // measure 198
0000
0000
0000
0000
,  // measure 199
0000
0000
0000
0000
,  // measure 200
0000
0000
0000
0000
,  // measure 201
0000
0000
0000
0000
,  // measure 202
0000
0000
0000
0000
,  // measure 203
0000
0000
0000
0000
,  // measure 204
0000
0000
0000
0000
,  // measure 205
0000
0000
0000
0000
,  // measure 206
0000
0000
0000
0000
,  // measure 207
0000
0000
0000
0000
,  // measure 208
1000
0000
1000
0000
,  // measure 209
0001
0000
0001
0000
,  // measure 210
1000
0000
0001
0000
,  // measure 211
1000
0000
0001
0000
,  // measure 212
0100
0000
0100
0000
,  // measure 213
0010
0000
0010
0000
,  // measure 214
1000
0000
0100
0000
,  // measure 215
0010
0000
0001
0000
,  // measure 216
1000
0000
0010
0000
,  // measure 217
0100
0000
0001
0000
,  // measure 218
0010
0000
0100
0000
,  // measure 219
1000
0000
0010
0000
,  // measure 220
0100
0000
0001
0000
,  // measure 221
1000
0000
0100
0000
,  // measure 222
0010
0000
0001
0000
,  // measure 223
0010
0000
0001
0000
,  // measure 224
1001
0000
0000
0000
,  // measure 225
0001
0000
0000
0000
,  // measure 226
1001
0000
0000
0000
,  // measure 227
1000
0000
0000
0000
,  // measure 228
1001
0000
0000
0000
,  // measure 229
0001
0000
0000
0000
,  // measure 230
1001
0000
1000
0000
,  // measure 231
0100
0000
1000
0100
,  // measure 232
1000
0000
0000
0100
,  // measure 233
0000
0000
1000
0000
,  // measure 234
0100
0000
1000
0000
,  // measure 235
0100
0000
1000
0100
,  // measure 236
1000
0000
0000
0100
,  // measure 237
0000
0000
1000
0000
,  // measure 238
0100
0000
0010
0000
,  // measure 239
0001
0000
1000
0010
,  // measure 240
0100
0000
0000
0010
,  // measure 241
0000
0000
1000
0001
,  // measure 242
1000
0000
0001
0000
,  // measure 243
0100
0000
0010
2000
,  // measure 244
0002
0000
0000
0000
,  // measure 245
0000
0000
0000
0000
,  // measure 246
0000
0000
0000
0000
,  // measure 247
0000
0000
0000
3003
0000
0000
0000
0000
;
