#TITLE:Moonlight Nocturne;
#SUBTITLE:[Arcana Heart] (Arranged);
#ARTIST:Motoharu Yoshihira;
#TITLETRANSLIT:;
#SUBTITLETRANSLIT:;
#ARTISTTRANSLIT:;
#GENRE:;
#CREDIT:;
#MENUCOLOR:;
#NEWMETERSYSTEM:NO;
#BANNER:moonnoct.png;
#BACKGROUND:moonnoct-bg.png;
#LYRICSPATH:;
#CDTITLE:!hiryuu.png;
#MUSIC:moonnoct.ogg;
#OFFSET:0.000;
#SAMPLESTART:17.468;
#SAMPLELENGTH:17.485;
#SELECTABLE:YES;
#LISTSORT:;
#BPMS:0.000=110.040,192.000=105.000,192.500=100.000,193.000=95.000,193.500=90.000,194.000=85.000,194.500=80.000,194.750=70.000,195.000=60.000,195.250=46.400,195.500=40.100,195.750=34.600;
#STOPS:;
#BGCHANGES:;
#ATTACKS:;

//---------------dance-single - SMANIAC----------------
#NOTES:
     dance-single:
     SMANIAC:
     Challenge:
     10:
     0.711,0.781,0.257,0.151,1.000:
0000
0000
0000
0000
,
0000
0000
0000
0000
,
0000
0000
0000
0000
,
0000
0000
0000
0000
,
1000
0010
0100
0010
1000
0100
1000
0010
0100
0001
0010
0100
1000
0000
1001
0000
,
0001
0010
0001
0100
0010
0100
0001
0010
0001
0010
0100
1000
0010
0000
0110
0000
,
0010
0100
0001
0010
0001
0100
0010
1000
0100
1000
0010
0100
0001
0000
1001
0000
,
1000
0000
0000
0100
0000
0000
0010
0000
0000
0100
0000
0000
1000
0000
0000
0000
0000
0000
0000
0000
0000
0000
0000
0000
0001
0000
0000
0000
0000
0000
0100
0000
0001
0000
0100
0000
0001
0000
0000
0000
0000
0000
1000
0000
0000
0001
0000
0000
,
1001
0000
0000
0000
0000
0000
0011
0000
0000
0001
0100
0001
0100
0000
0000
0001
0000
0000
1001
0000
0000
1000
0000
0000
,
1100
0000
1010
0010
0110
0100
0101
0000
,
0011
0000
0000
0000
0000
0000
1100
0000
0000
1000
0010
1000
0010
0000
0000
0100
0000
0000
0110
0000
0000
0001
0000
0000
,
1000
0001
0010
0100
1000
0000
0000
0000
1000
0100
0010
0001
1000
0000
0001
0100
,
0010
0000
0000
0000
0000
0000
0110
0000
0000
0100
0001
0100
0001
0000
0000
0010
0000
0000
0110
0000
0000
0100
0000
0000
,
1100
0000
1010
0000
0011
0010
1010
1000
,
1100
0000
0000
0000
0000
0000
0110
0000
0000
0100
0010
0100
0010
0000
0000
0001
0000
0000
1001
0000
0000
0001
0000
0000
,
0021
0000
2000
0030
,
0200
3000
0002
0300
,
0020
0003
2000
0030
,
0200
3000
0002
0300
,
0020
0000
0000
0003
0000
0000
0000
0000
0000
0031
1000
0010
,
0200
0000
0000
0310
2000
0000
3200
0000
,
0320
0000
0000
0031
0200
0000
0310
1000
,
0200
0000
0000
0310
0001
1000
0010
0100
,
0001
0000
1000
0000
0001
1000
0001
1000
0001
0000
1000
0000
0000
0000
0100
0000
1000
0000
0100
0000
0010
0000
0001
0000
0010
0001
0010
0001
0010
0000
0001
0000
,
0001
0010
0001
0010
0001
0000
0010
0000
0001
0000
0010
0000
0000
0000
0100
0000
1000
0000
0010
0000
1000
0000
0010
0000
0100
0000
0001
0000
0100
0000
0000
0000
,
0001
0000
1000
0000
0001
1000
0001
1000
0001
0000
1000
0000
0000
0000
0100
0000
1000
0000
0010
0000
0100
0000
0010
0000
0100
0010
0100
0010
0100
0000
0010
0000
,
0100
0001
0100
0001
0100
0000
0001
0000
0100
0000
0001
0000
0000
0000
0010
0000
0100
0000
1000
0000
0010
0000
0100
0000
0001
0000
0010
0000
0100
0000
0000
0000
,
1000
0000
0100
0000
1000
0100
1000
0100
1000
0000
0100
0000
0000
0000
1000
0000
0010
0000
0100
0000
0000
0000
0001
0000
0010
0001
0010
0001
0010
0000
0001
0000
,
1000
0001
1000
0001
1000
0000
0001
0000
1000
0000
0001
0000
0000
0000
0010
0000
0100
0000
1000
0000
0100
0000
0010
0000
0001
0000
0010
0000
0100
0000
0000
0000
,
1000
0000
0010
0000
1000
0010
1000
0010
1000
0000
0010
0000
0000
0000
0100
0000
0001
0000
0010
0000
0000
0000
0100
0000
0010
0100
0010
0100
0010
0000
0100
0000
,
1000
0100
1000
0100
1000
0000
0100
0000
1000
0000
0100
0000
0000
0000
0010
0000
0001
0000
0100
0000
0010
0000
1000
0000
0100
0000
0010
0000
0001
0000
0000
0000
,
0010
0000
0001
0000
0010
0001
0010
0001
0010
0000
0001
0000
0000
0000
0010
0000
0100
0000
1000
0000
0000
0000
0001
0000
1000
0001
1000
0001
1000
0000
0001
0000
,
1000
0100
0010
0001
0000
0010
0001
0100
0000
0001
0100
0010
0000
1000
0100
0010
,
0001
0010
0100
1000
0000
0010
1000
0100
0000
1000
0100
0010
0000
0001
0010
0100
,
1000
0100
1000
0010
0100
0001
0010
0001
0100
0010
1000
0100
0000
1000
0100
0010
,
0001
0010
0001
0100
0000
0010
1000
0100
0000
0010
0001
0100
0000
0010
1000
0001
,
1000
0100
0010
0001
0000
0010
0001
0100
0000
0001
0100
0010
0000
0100
0010
1000
,
0100
0010
0001
1000
0000
0001
1000
0100
0000
1000
0100
0010
0000
0100
0010
0001
,
1000
0010
0100
0001
0000
0100
0001
0010
0000
0001
0010
0100
0000
0010
0100
1000
,
0010
0100
0001
1000
0000
0001
1000
0010
0000
1000
0010
0100
0000
0010
0100
0001
,
1000
0010
1000
0010
0100
0001
0100
0001
0010
0100
0010
0100
1000
0000
0001
0000
,
2001
0000
0000
0000
0000
0000
0000
0000
0020
0000
0000
0000
0000
0000
0000
3030
,
1000
0010
0100
0001
0010
0100
1000
0010
0100
0001
0010
0100
1000
0000
1100
0000
,
0100
1000
0010
0100
0001
0010
0001
0100
0010
1000
0100
0010
0001
0000
0011
0000
,
0001
0010
0001
0100
0010
1000
0010
0100
0001
0010
0100
1000
0100
0000
1100
0000
,
0100
1000
0010
0100
0001
0000
0000
0000
1000
0010
0100
0001
0010
0000
0100
1000
,
0001
0100
0010
1000
0100
0010
0001
0100
0010
1000
0010
0100
0001
0000
0011
0000
,
0010
0100
1000
0100
0010
0001
0100
0010
1000
0100
0010
0001
1000
0000
1001
0000
,
0001
0010
0001
0010
0001
0100
0001
0100
0010
1000
0010
1000
0100
0000
1000
0000
,
0100
0000
0000
0000
;

//---------------dance-single - MANIAC----------------
#NOTES:
     dance-single:
     MANIAC:
     Hard:
     9:
     0.528,0.543,0.009,0.151,0.536:
0000
0000
0000
0000
,
0000
0000
0000
0000
,
0000
0000
0000
0000
,
0000
0000
0000
0000
,
1000
0100
1000
0100
0010
0001
0010
0001
1000
0000
0010
0000
0100
0000
0001
0000
,
0010
0001
0010
0001
1000
0100
1000
0100
0010
0000
0001
0000
1000
0000
0100
0000
,
1000
0010
1000
0010
0100
0001
0100
0001
1000
0000
0010
0000
0100
0000
0001
0000
,
1000
0100
0010
0100
1000
0000
0000
0000
0001
0010
0100
0010
0001
0000
0010
0001
,
1000
0001
1000
0001
0100
0010
0100
0010
1000
0000
0001
0000
0100
0000
0010
0000
,
1000
0100
1000
0100
0010
0001
0010
0001
1000
0000
0100
0000
0010
0000
0001
0000
,
0100
0001
0100
0001
1000
0010
1000
0010
0100
0000
0001
0000
1000
0000
0010
0000
,
1000
0100
0001
0100
1000
0000
0000
0000
0010
0001
0010
1000
0100
0000
0001
0100
,
1000
0100
1000
0100
0010
0001
0010
0001
1000
0000
0010
0000
0100
0000
0001
0000
,
0010
0001
0010
0001
1000
0100
1000
0100
0010
0000
0001
0000
1000
0000
0100
0000
,
1000
0010
1000
0010
0100
0001
0100
0001
1000
0100
0010
0001
0010
0000
0100
0000
,
2000
0000
3200
0000
,
2300
0000
3020
0000
,
0230
0000
0302
0000
,
0023
0000
0230
0000
,
0320
0000
0000
0000
,
0032
0000
0203
0000
,
0320
0000
2030
0000
,
3200
0000
0000
0000
1300
0010
0100
0001
,
1000
1000
0001
0001
,
1000
0100
0010
0001
0100
0010
1000
0001
,
0010
0001
0100
0010
1000
0100
0010
0100
,
1000
0010
0100
0001
0010
0001
0100
0010
,
1000
0100
0010
0001
0100
0010
1000
0000
,
0001
0010
0100
0010
0001
1000
0010
0100
,
0001
0010
0001
1000
0001
0010
0100
0010
,
0001
0010
0001
0100
0010
1000
0100
1000
,
0010
0100
0001
0010
0001
1000
0001
0000
,
1000
0100
1000
0100
0000
0000
0100
0010
0000
0000
0010
0001
0000
0000
0001
0100
,
0010
1000
0100
1000
0000
0000
1000
0100
0000
0000
0100
0010
0000
0000
0010
0001
,
0100
0010
0100
0010
1000
0001
1000
0001
0100
0010
0100
0010
0000
0000
1000
0100
,
1000
0010
1000
0010
0000
0000
0010
0100
0000
0000
0100
0001
0000
0000
0001
1000
,
0001
0010
0001
0010
0000
0000
0010
0001
0000
0000
0001
0100
0000
0000
0100
0010
,
0100
0010
0100
0010
0000
0000
0010
1000
0000
0000
1000
0100
0000
0000
0100
1000
,
0001
1000
0001
1000
0000
0000
1000
0100
0000
0000
0100
0010
0000
0000
0010
0001
,
0100
0001
0100
0001
0000
0000
0001
0100
0000
0000
0100
0010
0000
0000
0010
1000
,
0100
1000
0010
0001
0010
1000
0100
1000
,
2002
0000
0000
3000
0200
0000
0000
0303
,
0001
0100
0001
0100
0010
1000
0010
1000
0001
0000
0100
0000
0010
0000
1000
0000
,
0010
0100
0010
0100
0001
1000
0001
1000
0010
0000
0100
0000
0001
0000
1000
0000
,
0100
0010
0100
0010
1000
0001
1000
0001
0100
0000
0010
0000
1000
0000
0001
0000
,
1000
0100
0010
0100
1000
0000
0000
0000
0001
0010
0100
0010
0001
0000
0010
0001
,
0010
0001
0100
0010
1000
0100
1000
0010
0100
0000
0001
0000
0010
0000
0001
0000
,
0100
0010
1000
0010
0100
0001
0010
0001
0100
0000
0010
0000
1000
0000
0010
0000
,
1000
0001
1000
0001
0100
0010
0100
0010
1000
0100
0010
0001
0010
0000
0100
0000
,
1000
0000
0000
0000
;

//---------------dance-single - TRICKY----------------
#NOTES:
     dance-single:
     TRICKY:
     Medium:
     5:
     0.281,0.369,0.133,0.035,0.000:
0000
0000
0000
0000
,
0000
0000
0000
0000
,
0000
0000
0000
0000
,
0000
0000
0000
0000
,
1000
0100
0010
0001
1000
0000
1001
0000
,
0001
0100
0010
1000
0010
0000
0110
0000
,
1000
0100
1000
0010
1000
0000
1100
0000
,
1000
0010
0100
0000
0001
0010
0100
0000
,
1000
0010
0100
0001
0010
0000
0011
0000
,
0001
0100
0010
1000
0100
0000
1100
0000
,
1000
0100
0010
0100
1000
0000
1100
0000
,
1000
0100
0010
0000
0001
0100
0010
0000
,
0100
0001
0010
0100
1000
0000
1100
0000
,
0100
1000
0010
0100
0001
0000
0011
0000
,
0010
0100
0001
1000
0100
0010
0001
1000
,
2002
0000
3003
0000
,
1000
0000
1000
0000
,
0100
0000
0100
0000
,
0010
0000
0010
0000
,
0011
0000
0000
0000
,
0001
0000
0100
0000
,
0010
0000
1000
0000
,
0100
0000
0010
0000
,
1001
0000
0000
0000
,
1000
1000
0100
0100
,
0010
0010
0001
0001
,
1000
0010
0100
0001
,
1000
0100
0010
0001
,
1000
1000
0010
0010
,
0100
0100
0001
0001
,
1000
0001
0100
0010
,
0100
0010
1000
0001
,
0010
0001
0010
0000
0001
0000
0001
0000
,
0100
0010
0100
0000
0010
0000
0010
0000
,
1000
0100
0010
0001
,
0100
0010
1000
0001
,
0010
0100
0010
0000
0100
0000
0100
0000
,
1000
0001
1000
0000
0001
0000
0001
0000
,
0100
0010
0100
0001
,
0010
0001
0100
0010
,
1000
0100
1000
0000
0001
0010
0001
0000
,
2002
0000
3003
0000
,
1000
0100
0010
0001
0100
0000
0110
0000
,
0010
1000
0100
0010
0001
0000
0011
0000
,
0001
0100
0010
1000
0100
0000
1100
0000
,
1000
0010
0100
0000
0001
0010
0100
0000
,
1000
0100
1000
0010
0100
0010
1000
0100
,
1000
0001
0100
0001
0010
0001
0100
0001
,
0010
0001
0100
0010
,
1000
0000
0000
0000
;

//---------------dance-single - BASIC----------------
#NOTES:
     dance-single:
     BASIC:
     Easy:
     2:
     0.167,0.195,0.009,0.000,0.000:
0000
0000
0000
0000
,
0000
0000
0000
0000
,
0000
0000
0000
0000
,
0000
0000
0000
0000
,
1000
1000
0001
0001
,
0100
0100
0010
0010
,
1000
0100
0010
0001
,
1000
0000
0001
0000
,
0010
0001
0100
0010
,
1000
0010
0100
0001
,
0010
0010
0001
0001
,
1000
0000
0100
0000
,
1000
0010
0100
0100
,
0001
0010
0100
0100
,
1000
0001
1000
0100
,
1000
0000
0000
0000
,
0001
0000
0001
0000
,
0100
0000
0100
0000
,
0010
0000
0010
0000
,
1000
0000
0000
0000
,
0001
0000
0001
0000
,
0010
0000
0010
0000
,
0100
0000
0010
0000
,
0001
0000
0000
0000
,
1000
0000
0100
0000
,
0010
0000
0001
0000
,
0100
0000
0010
0000
,
1000
0000
0001
0000
,
0010
0000
0001
0000
,
0100
0000
0010
0000
,
1000
0000
0100
0000
,
1000
0000
0010
0000
,
1000
1000
0010
0010
,
0100
0100
0001
0001
,
1000
0100
0010
0001
,
1000
0010
0100
0001
,
0010
0010
0001
0001
,
1000
1000
0100
0100
,
1000
0100
1000
0010
,
1000
0001
1000
0010
,
1000
0000
0001
0000
,
1001
0000
0000
0000
,
0001
0010
0100
1000
,
0001
0100
0010
1000
,
0001
0010
0001
0100
,
0010
0000
1000
0000
,
0010
0010
1000
1000
,
0001
0001
0100
0100
,
0001
0000
1000
0000
,
0001
0000
0000
0000
;

//---------------dance-single - SIMPLE----------------
#NOTES:
     dance-single:
     SIMPLE:
     Beginner:
     1:
     0.082,0.152,0.027,0.000,0.000: // measure 1
0000
0000
0000
0000
,  // measure 2
0000
0000
0000
0000
,  // measure 3
0000
0000
0000
0000
,  // measure 4
0000
0000
0000
0000
,  // measure 5
1000
0000
0000
0000
,  // measure 6
0001
0000
0000
0000
,  // measure 7
0100
0000
0000
0000
,  // measure 8
0010
0000
0010
0000
,  // measure 9
0100
0000
0000
0000
,  // measure 10
0001
0000
0000
0000
,  // measure 11
0010
0000
0000
0000
,  // measure 12
0100
0000
0100
0000
,  // measure 13
1000
0000
0000
0000
,  // measure 14
0001
0000
0000
0000
,  // measure 15
0100
0000
0010
0000
,  // measure 16
0110
0000
0000
0000
,  // measure 17
0000
0000
0000
0000
,  // measure 18
0000
0000
0000
0000
,  // measure 19
0000
0000
0000
0000
,  // measure 20
0000
0000
0000
0000
,  // measure 21
1000
0000
1000
0000
,  // measure 22
0001
0000
0001
0000
,  // measure 23
0100
0000
0010
0000
,  // measure 24
0110
0000
0000
0000
,  // measure 25
1000
0000
0000
0000
,  // measure 26
0100
0000
0000
0000
,  // measure 27
0010
0000
0000
0000
,  // measure 28
0001
0000
0000
0000
,  // measure 29
0100
0000
0000
0000
,  // measure 30
0010
0000
0000
0000
,  // measure 31
1000
0000
0000
0000
,  // measure 32
0001
0000
0000
0000
,  // measure 33
1000
0000
1000
0000
,  // measure 34
0001
0000
0001
0000
,  // measure 35
0100
0100
0100
0000
,  // measure 36
0010
0010
0010
0000
,  // measure 37
1000
0000
0100
0000
,  // measure 38
0010
0000
0001
0000
,  // measure 39
0100
0010
0100
0000
,  // measure 40
0001
1000
0001
0000
,  // measure 41
1000
0000
0001
0000
,  // measure 42
1001
0000
0000
0000
,  // measure 43
1000
0000
0000
0000
,  // measure 44
0010
0000
0000
0000
,  // measure 45
0100
0000
0000
0000
,  // measure 46
0001
0000
0001
0000
,  // measure 47
0010
0000
0000
0000
,  // measure 48
0001
0000
0000
0000
,  // measure 49
1000
0000
0000
0000
,  // measure 50
0100
0000
0000
0000
;
