#TITLE:Midnight Blue;
#SUBTITLE:;
#ARTIST:Aikawa Nanase;
#TITLETRANSLIT:;
#SUBTITLETRANSLIT:;
#ARTISTTRANSLIT:;
#GENRE:;
#CREDIT:;
#BANNER:midnight.png;
#BACKGROUND:midnight-bg.png;
#LYRICSPATH:;
#CDTITLE:!hiryuu.png;
#MUSIC:midnight.mp3;
#OFFSET:-0.025;
#SAMPLESTART:25.438;
#SAMPLELENGTH:20.305;
#SELECTABLE:YES;
#BPMS:0.000=189.060,256.000=94.530,272.000=189.060;
#STOPS:;
#BGCHANGES:;
#KEYSOUNDS:;

//---------------dance-single - MANIAC----------------
#NOTES:
     dance-single:
     MANIAC:
     Hard:
     10:
     0.762,0.000,0.088,0.361,0.088:
0000
0000
0000
0000
,
0000
0000
0000
0000
,
0000
0000
0000
0000
,
0000
0000
0000
0000
,
0000
1000
0100
1000
0100
0000
0010
0001
,
0000
0100
0010
0100
1000
0100
0001
0000
,
0000
0010
0100
0010
0100
0000
1000
0010
,
0000
0001
0010
1000
0100
0002
0000
0000
,
0103
1000
0010
0100
0001
0010
0001
0100
,
0000
0010
0100
0010
1000
0000
1001
0000
,
0001
0100
0010
1000
0100
0010
0001
0010
,
0000
0001
0010
0100
2000
0000
0000
0000
,
3010
0100
0001
0010
0001
0100
0010
1000
,
0000
0100
1000
0010
0100
0000
0110
0000
,
0100
0001
0010
0100
1000
0000
0010
0001
,
0000
0010
1000
0100
0001
0200
0000
0000
,
1300
0010
0100
0000
0001
0010
0100
0000
,
1000
0010
0100
0000
0001
0010
0100
0000
,
1000
0001
1000
0001
1000
0001
1000
0001
1000
0001
1000
0001
,
0000
1001
0000
0000
0101
0000
0011
0000
,
0100
1000
0010
0100
0001
0000
1000
0100
,
0010
0001
0100
0010
1000
0000
1010
0000
,
0010
0100
0001
0010
0100
0000
1000
0001
,
1000
0100
0010
0001
1000
0000
1001
0000
,
1000
0100
1000
0010
0100
0000
0001
0010
,
0001
0100
0010
1000
0000
0100
0001
0100
,
1000
0100
1000
0100
0010
0001
0010
0001
,
1000
0001
1000
0001
2000
0000
3001
0000
,
0010
0001
0100
0010
2000
0000
3010
0100
,
0001
0100
0010
1000
0200
0000
0310
0000
,
0001
0100
0010
1000
0200
0000
0310
0001
,
0100
0010
1000
0010
0200
0000
0310
0000
,
1000
0100
0001
0100
2000
0000
3010
0001
,
0010
1000
0100
0002
0000
0103
1000
0100
,
0001
0100
1000
0010
0100
0001
1000
0001
,
1000
0100
0010
0100
0020
0000
0031
0000
,
1000
0010
0100
0001
2000
0000
3001
1000
,
0000
0100
0010
0100
1000
0100
0002
0000
,
0103
1000
0010
0001
0020
0000
1030
0100
,
0000
1000
0010
0100
2000
0000
3100
0000
,
0001
0010
1000
0010
0002
0000
0103
0010
,
0000
1000
0100
0001
0100
1000
0020
0000
,
0130
0001
1000
0100
0020
0000
0031
0100
,
0000
0010
1000
0001
0100
0020
0000
0000
,
1030
0100
0001
0000
0001
0100
1000
0000
,
1000
0010
0001
0000
0001
0010
1000
0000
,
1000
0010
0100
0001
0010
0001
0100
0010
,
0000
0110
0000
0000
1010
0000
1100
0000
,
0010
0001
0100
0010
1000
0010
0100
0001
,
0010
0001
0100
0010
0200
0000
0310
0000
,
1000
0010
0100
0001
0010
0001
0100
0010
,
1000
0100
1000
0010
0200
0000
0310
0000
,
1000
0100
0001
0100
2000
0000
3010
0001
,
0010
1000
0100
0002
0000
1003
0001
1000
,
0001
0010
0001
0010
0100
1000
0100
1000
,
0001
1000
0001
1000
0020
0000
0130
0000
,
0001
0010
0100
1000
0200
0000
0310
0001
,
1000
0010
0100
0001
2000
0000
3001
0000
,
0100
0010
0100
1000
0200
0000
0310
1000
,
0100
0010
0001
1000
0002
0000
1003
0000
,
0001
0010
0001
0010
0200
0000
1300
0100
,
1000
0100
0010
0200
0000
1300
0001
1000
,
0100
1000
0100
0010
0001
0010
0001
1000
,
0100
0001
0100
1000
0002
0000
1003
0000
,
0001
0000
1000
0000
0001
0000
1000
0100
0000
1000
0100
0000
1000
0000
0000
0000
,
0010
0000
0100
0000
0010
0000
0100
0001
0000
0100
0010
0000
0100
0000
0000
0000
,
0001
0000
0100
0000
0010
0000
1000
0100
0000
0010
0000
0001
0000
0000
0000
0000
,
1000
0001
1000
0001
0100
0010
0100
0010
1000
0100
0010
0001
1000
0000
0000
0000
,
1000
0001
1000
0001
0100
0010
0100
0010
,
1000
0100
0010
0001
0100
0010
1000
0100
,
0010
0001
0010
0001
1000
0100
1000
0100
,
0010
0001
1000
0010
0100
0001
1000
0100
,
0010
0001
0010
0001
0100
0010
0100
0010
,
1000
0100
1000
0010
0100
0001
0010
0001
,
0100
0010
0100
0010
1000
0001
1000
0001
,
0010
0001
0100
0010
1000
0100
1000
0010
,
1000
0100
1000
0100
0010
0001
0010
0001
,
0100
0010
1000
0100
1000
0010
0100
0001
,
0010
0001
0010
0001
1000
0100
1000
0100
,
0010
0001
0010
0100
0010
0001
1000
0001
,
0100
0010
0100
0010
1000
0100
1000
0100
,
1000
0010
0100
0010
1000
0001
0100
0010
,
1000
0100
1000
0100
0010
0001
0010
0001
,
1000
0010
0100
0001
2000
0000
3002
0000
,
1003
0100
0010
0001
2000
0000
3010
0100
,
0000
0001
0010
0001
0100
0010
2000
0000
,
3010
0100
0001
0010
0200
0000
1300
0001
,
0000
1000
0010
0100
0002
0000
2003
0000
,
3001
0100
0010
1000
0200
0000
1300
0010
,
0000
0100
0010
0100
1000
0100
0001
0000
,
0010
1000
0010
0001
1000
0000
0001
2000
,
0000
3010
0100
0001
0100
0020
0000
0030
,
2002
0000
0000
0000
0000
0000
0000
0000
3003
0000
0000
0000
0000
0000
0001
1000
,
0001
0100
0000
0020
0200
0000
0000
0000
,
0330
0000
0000
0000
;

//---------------dance-single - TRICKY----------------
#NOTES:
     dance-single:
     TRICKY:
     Medium:
     7:
     0.420,0.000,0.120,0.128,0.000: // measure 1
0000
0000
0000
0000
,  // measure 2
0000
0000
0000
0000
,  // measure 3
0000
0000
0000
0000
,  // measure 4
0000
0000
0000
0000
,  // measure 5
1000
0001
1000
0001
,  // measure 6
0100
0010
0100
0010
,  // measure 7
1000
0100
1000
0100
,  // measure 8
0010
0001
2000
0000
,  // measure 9
3001
0001
1000
1000
,  // measure 10
0010
0100
0110
0010
,  // measure 11
1000
1000
0001
0001
,  // measure 12
1000
0100
0020
0000
,  // measure 13
0031
0001
0100
0100
,  // measure 14
0010
1000
1010
0010
,  // measure 15
0100
0100
0001
0001
,  // measure 16
0010
0100
2000
0000
,  // measure 17
3001
0000
0001
0000
,  // measure 18
1000
0000
1000
0000
,  // measure 19
0001
1000
0001
1000
,  // measure 20
0010
0000
0100
0000
,  // measure 21
0001
0001
0001
0100
,  // measure 22
0010
1000
0010
0000
,  // measure 23
1000
1000
1000
0100
,  // measure 24
0010
0001
1000
0000
,  // measure 25
0001
0100
0010
0000
,  // measure 26
0100
0000
0000
0010
0000
0000
0000
0000
,  // measure 27
1000
1000
0001
0001
,  // measure 28
0100
0010
0100
0000
0110
0000
0000
0000
,  // measure 29
1000
1000
0100
0100
,  // measure 30
0010
0001
0011
0000
,  // measure 31
0001
0001
0100
0100
,  // measure 32
0010
1000
1010
0000
,  // measure 33
1000
0001
0100
0000
,  // measure 34
0010
0000
0000
1000
0000
0000
0000
0000
,  // measure 35
0100
0010
0001
1000
,  // measure 36
0010
0100
0010
0000
0110
0000
0000
0000
,  // measure 37
1000
1000
0010
0010
,  // measure 38
0100
0001
0011
0010
,  // measure 39
0100
0100
1000
1000
,  // measure 40
0001
0000
1000
0000
2002
0000
0000
3003
,  // measure 41
0001
0010
0001
0000
0100
0000
0010
0000
,  // measure 42
1000
0100
1000
0000
0001
0000
1001
0000
,  // measure 43
0100
0010
0100
0000
0010
0100
0010
0000
,  // measure 44
1000
1000
1000
0000
,  // measure 45
0001
0000
0001
0000
,  // measure 46
0001
0000
0001
0000
,  // measure 47
1000
0010
0100
0001
,  // measure 48
1000
0000
0001
0000
,  // measure 49
1000
1000
1000
0010
,  // measure 50
0100
0001
0020
0000
,  // measure 51
0130
0100
0100
1000
,  // measure 52
0010
0100
0002
0000
,  // measure 53
1003
0001
1000
0000
0001
0000
0100
0000
,  // measure 54
0010
0100
0110
0000
,  // measure 55
1000
0000
0001
0000
,  // measure 56
1000
0001
1001
0000
,  // measure 57
1000
0100
1000
0000
0010
0000
0100
0000
,  // measure 58
0001
0010
0001
0000
0100
0000
0000
0000
,  // measure 59
0001
1000
0001
0000
0100
0000
0010
0000
,  // measure 60
1000
0100
1000
0000
0001
0000
0000
0000
,  // measure 61
0100
0010
0100
0000
0001
0000
0100
0000
,  // measure 62
0010
0000
1000
0100
0000
0010
0001
0000
,  // measure 63
1001
0000
0001
0000
,  // measure 64
0011
0000
0010
0000
,  // measure 65
0100
0000
0100
0000
0100
0100
0100
0000
,  // measure 66
1000
0000
1000
0000
1000
1000
1000
0000
,  // measure 67
0001
0100
0001
0000
1000
0010
1000
0000
,  // measure 68
0001
1000
0001
1000
0001
1000
0001
0000
,  // measure 69
1000
0010
0100
0001
,  // measure 70
0010
0001
0100
0010
,  // measure 71
1000
0100
1000
0010
,  // measure 72
0100
0001
0010
0001
,  // measure 73
0100
0010
1000
0010
,  // measure 74
0100
0001
0010
0001
,  // measure 75
1000
0100
0010
0001
,  // measure 76
1000
0100
0010
0001
,  // measure 77
0010
0001
0100
0010
,  // measure 78
1000
0100
1000
0010
,  // measure 79
0100
0001
0010
0001
,  // measure 80
0100
0001
0010
0001
,  // measure 81
0100
0010
1000
0100
,  // measure 82
1000
0010
0100
0001
,  // measure 83
1000
0010
0100
0001
,  // measure 84
1000
0010
0200
0320
,  // measure 85
1030
1000
0001
0001
,  // measure 86
1000
0001
1001
0001
,  // measure 87
0100
0100
0010
0010
,  // measure 88
1000
0000
0001
0000
2002
0000
0000
3003
,  // measure 89
0001
0100
0001
0100
,  // measure 90
0010
0100
0010
0000
1000
0000
0010
0000
,  // measure 91
1000
0000
0001
0000
1000
0000
0000
0002
,  // measure 92
0000
0013
0100
1000
0001
2000
0000
0000
,  // measure 93
3002
0000
0003
0000
,  // measure 94
0001
2000
0000
0000
0002
0000
0000
0000
,  // measure 95
3003
0000
0000
0000
;

//---------------dance-single - BASIC----------------
#NOTES:
     dance-single:
     BASIC:
     Easy:
     3:
     0.251,0.000,0.024,0.016,0.000: // measure 1
0000
0000
0000
0000
,  // measure 2
0000
0000
0000
0000
,  // measure 3
0000
0000
0000
0000
,  // measure 4
0000
0000
0000
0000
,  // measure 5
1000
0000
1000
0000
,  // measure 6
0001
0100
0001
0000
,  // measure 7
0100
0000
0100
0000
,  // measure 8
0010
0100
0010
0000
,  // measure 9
1000
0000
1000
0000
,  // measure 10
1000
0000
1000
1000
,  // measure 11
0001
0000
1000
0000
,  // measure 12
0001
0000
1001
0000
,  // measure 13
0100
0000
0100
0000
,  // measure 14
0100
0000
0100
0100
,  // measure 15
0010
0000
0010
0000
,  // measure 16
1000
0000
1001
0000
,  // measure 17
0001
0000
0000
0000
,  // measure 18
1000
0000
0000
0000
,  // measure 19
0001
0000
1000
0000
,  // measure 20
0001
0000
1000
0000
,  // measure 21
0001
0001
0001
0000
,  // measure 22
1000
0000
0001
0000
,  // measure 23
1000
1000
1000
0000
,  // measure 24
0001
0000
1000
0000
,  // measure 25
0010
0100
0010
0000
,  // measure 26
0100
0000
0010
0000
,  // measure 27
1000
0000
0100
0000
,  // measure 28
0010
0000
0001
0000
,  // measure 29
1000
0100
1000
0000
,  // measure 30
0001
0000
0100
0000
,  // measure 31
0001
0010
0001
0000
,  // measure 32
1000
0000
0100
0000
,  // measure 33
1000
1000
1000
0000
,  // measure 34
0001
0000
0001
0000
,  // measure 35
0100
0000
0010
0000
,  // measure 36
1000
0001
1000
0000
,  // measure 37
0001
0001
0001
0000
,  // measure 38
1000
0000
0010
0000
,  // measure 39
0100
0100
0100
0000
,  // measure 40
0010
0000
1000
0000
,  // measure 41
0001
0001
0001
0000
,  // measure 42
0100
0000
0001
0000
,  // measure 43
1000
1000
1000
0000
,  // measure 44
0010
0000
0100
0000
,  // measure 45
0001
0000
0010
0000
,  // measure 46
0100
0000
1000
0000
,  // measure 47
0001
0000
0010
0000
,  // measure 48
0100
0000
1000
0000
,  // measure 49
0001
0001
0001
0000
,  // measure 50
0010
0000
0001
0000
,  // measure 51
1000
1000
1000
0000
,  // measure 52
0100
0000
1000
0000
,  // measure 53
0001
0010
0001
0000
,  // measure 54
0100
0000
0010
0000
,  // measure 55
1000
0000
1000
0000
,  // measure 56
0100
0010
0001
0000
,  // measure 57
1000
1000
1000
0000
,  // measure 58
0010
0000
0100
0000
,  // measure 59
0001
0001
0001
0000
,  // measure 60
0100
0000
0010
0000
,  // measure 61
1000
0001
1000
0000
,  // measure 62
0010
0100
0010
0000
,  // measure 63
1000
0000
1000
0000
,  // measure 64
0001
0000
0001
0000
,  // measure 65
1000
0010
0100
0001
,  // measure 66
1000
0100
0010
0001
,  // measure 67
1000
0010
0100
0001
,  // measure 68
1000
0000
0001
0000
,  // measure 69
1000
0000
0001
0000
,  // measure 70
1000
0000
0001
0000
,  // measure 71
0100
0000
0010
0000
,  // measure 72
0100
0000
0010
0000
,  // measure 73
1000
0000
0100
0000
,  // measure 74
0010
0000
0001
0000
,  // measure 75
1000
0000
0010
0000
,  // measure 76
0100
0000
0001
0000
,  // measure 77
1000
1000
1000
0000
,  // measure 78
0001
0000
0100
0000
,  // measure 79
0001
0001
0001
0000
,  // measure 80
0100
0000
0010
0000
,  // measure 81
1000
0100
1000
0000
,  // measure 82
0001
0010
0001
0000
,  // measure 83
1000
0100
0010
0001
,  // measure 84
1000
0001
1000
0000
,  // measure 85
0001
0000
0001
0000
,  // measure 86
1000
0000
1000
0000
,  // measure 87
0010
0000
0010
0000
,  // measure 88
0100
0100
0100
0000
,  // measure 89
0001
0000
0010
0000
,  // measure 90
0100
0000
1000
0000
,  // measure 91
0001
0000
0100
0000
,  // measure 92
0010
0000
1000
0000
,  // measure 93
1001
0000
0000
0000
,  // measure 94
0000
0002
0000
0000
2000
0000
3003
0000
;

//---------------dance-single - SIMPLE----------------
#NOTES:
     dance-single:
     SIMPLE:
     Beginner:
     1:
     0.110,0.000,0.064,0.000,0.000: // measure 1
0000
0000
0000
0000
,  // measure 2
0000
0000
0000
0000
,  // measure 3
0000
0000
0000
0000
,  // measure 4
0000
0000
0000
0000
,  // measure 5
1000
0000
0000
0000
,  // measure 6
0001
0000
0000
0000
,  // measure 7
1000
0000
0000
0000
,  // measure 8
0001
0000
0000
0000
,  // measure 9
0100
0000
0000
0000
,  // measure 10
0010
0000
0000
0000
,  // measure 11
0100
0000
0000
0000
,  // measure 12
0010
0000
0000
0000
,  // measure 13
1000
0000
0000
0000
,  // measure 14
1000
0000
0000
0000
,  // measure 15
0001
0000
0000
0000
,  // measure 16
0001
0000
0000
0000
,  // measure 17
1001
0000
0000
0000
,  // measure 18
0000
0000
0000
0000
,  // measure 19
0000
0000
0000
0000
,  // measure 20
0000
0000
0000
0000
,  // measure 21
1000
0000
0000
0000
,  // measure 22
1000
0000
0000
0000
,  // measure 23
0001
0000
0000
0000
,  // measure 24
0001
0000
0000
0000
,  // measure 25
0100
0000
0010
0000
,  // measure 26
0100
0000
0010
0000
,  // measure 27
0100
0000
0000
0000
,  // measure 28
0000
0000
0000
0000
,  // measure 29
0001
0000
0000
0000
,  // measure 30
0001
0000
0000
0000
,  // measure 31
1000
0000
0000
0000
,  // measure 32
1000
0000
0000
0000
,  // measure 33
0100
0000
0010
0000
,  // measure 34
0100
0000
0010
0000
,  // measure 35
0110
0000
0000
0000
,  // measure 36
0000
0000
0000
0000
,  // measure 37
0001
0000
0000
0000
,  // measure 38
0010
0000
0000
0000
,  // measure 39
0100
0000
0000
0000
,  // measure 40
1000
0000
0000
0000
,  // measure 41
0001
0000
0000
0000
,  // measure 42
0100
0000
0000
0000
,  // measure 43
0010
0000
0000
0000
,  // measure 44
1000
0000
0000
0000
,  // measure 45
1001
0000
0000
0000
,  // measure 46
0000
0000
0000
0000
,  // measure 47
0000
0000
0000
0000
,  // measure 48
0000
0000
0000
0000
,  // measure 49
0001
0000
0000
0000
,  // measure 50
0001
0000
0000
0000
,  // measure 51
0100
0000
0000
0000
,  // measure 52
0100
0000
0000
0000
,  // measure 53
0010
0000
0010
0000
,  // measure 54
1000
0000
1000
0000
,  // measure 55
1010
0000
0000
0000
,  // measure 56
0000
0000
0000
0000
,  // measure 57
1000
0000
0000
0000
,  // measure 58
0010
0000
0000
0000
,  // measure 59
0100
0000
0000
0000
,  // measure 60
0001
0000
0000
0000
,  // measure 61
1000
0000
0100
0000
,  // measure 62
0010
0000
0001
0000
,  // measure 63
1001
0000
0000
0000
,  // measure 64
0000
0000
0000
0000
,  // measure 65
1000
0000
0001
0000
,  // measure 66
1000
0000
0001
0000
,  // measure 67
0100
0000
0010
0000
,  // measure 68
1001
0000
0000
0000
,  // measure 69
0001
0000
0000
0000
,  // measure 70
0001
0000
0000
0000
,  // measure 71
1000
0000
0000
0000
,  // measure 72
1000
0000
0000
0000
,  // measure 73
0010
0000
0000
0000
,  // measure 74
0010
0000
0000
0000
,  // measure 75
0100
0000
0000
0000
,  // measure 76
0100
0000
0000
0000
,  // measure 77
0001
0000
0000
0000
,  // measure 78
0010
0000
0000
0000
,  // measure 79
0100
0000
0000
0000
,  // measure 80
1000
0000
0000
0000
,  // measure 81
0001
0000
0000
0000
,  // measure 82
0100
0000
0000
0000
,  // measure 83
0010
0000
0000
0000
,  // measure 84
1000
0000
0000
0000
,  // measure 85
0001
0000
0000
0000
,  // measure 86
0000
0000
0000
0000
,  // measure 87
0001
0000
0000
0000
,  // measure 88
0000
0000
0000
0000
,  // measure 89
1000
0000
0000
0000
,  // measure 90
0000
0000
0000
0000
,  // measure 91
1000
0000
0000
0000
,  // measure 92
0001
0000
0000
0000
,  // measure 93
1001
0000
0000
0000
,  // measure 94
0000
0000
1001
0000
;
