#TITLE:Maiden of Virtue;
#SUBTITLE:;
#ARTIST:Detach;
#TITLETRANSLIT:;
#SUBTITLETRANSLIT:;
#ARTISTTRANSLIT:;
#CREDIT:;
#BANNER:mov.png;
#BACKGROUND:mov-bg.png;
#LYRICSPATH:;
#CDTITLE:!hiryuu.png;
#MUSIC:mov.ogg;
#OFFSET:0.000;
#SAMPLESTART:11.657;
#SAMPLELENGTH:10.983;
#SELECTABLE:YES;
#BPMS:0.000=87.500,17.000=175.000,49.000=87.500,65.000=175.000,194.000=87.500;
#STOPS:97.000=1.029
;
#BGCHANGES:;

//---------------dance-single - SMANIAC----------------
#NOTES:
     dance-single:
     SMANIAC:
     Challenge:
     12:
     0.956,0.882,0.236,0.537,1.000:
0000
0000
0000
0000
,
0000
0000
0000
0000
,
0000
0000
0000
0000
1000
0100
0001
0100
1000
0000
0010
0001
0000
0010
0100
0001
,
0010
1000
0010
0001
0100
0000
1000
0100
0000
0001
0010
0000
1000
0010
0001
0100
,
1000
0100
0001
1000
0001
0000
0010
0000
0100
0000
1000
0100
0010
0001
0010
0100
,
1000
0000
0000
0000
0001
0010
0100
1000
0001
0000
0000
0000
0010
0000
0000
0000
0001
0000
0000
0000
1000
0000
0010
0000
0100
0000
0001
0000
0100
0000
0010
0000
,
1000
0000
0000
0000
0001
0010
0100
1000
0010
0000
0000
0000
1000
0000
0000
0000
0100
0000
0000
0000
0010
0000
0001
0000
0010
0000
0100
0000
1000
0000
0010
0000
,
0100
0000
0000
0000
0001
0010
0100
1000
0001
0000
0000
0000
1000
0000
0000
0000
0010
0000
0000
0000
0100
0000
0010
0000
1000
0000
0100
0000
0010
0000
0001
0000
,
1000
0001
1000
0001
1000
0000
0001
0000
1001
0000
0001
0100
0010
1000
0100
0010
,
0001
0000
0000
0000
1000
0100
0010
0001
1000
0000
0000
0000
0010
0000
0000
0000
1010
0000
0000
0000
0010
0000
1000
0000
0001
0000
1000
0000
0100
0000
0010
0000
,
0001
0000
0000
0000
1000
0100
0010
0001
1000
0000
0000
0000
0001
0000
0000
0000
0011
0000
0000
0000
0001
0000
0010
0000
0100
0000
1000
0000
0010
0000
0100
0000
,
0001
0000
0000
0000
1000
0100
0010
0001
1000
0000
0000
0000
0001
0000
0000
0000
1001
0000
0000
0000
1000
0000
0100
0000
0010
0000
0001
0000
0100
0000
0010
0000
,
1000
0001
1000
0001
1001
1000
0001
0000
0010
0001
0000
0100
0010
1000
0100
1000
,
0010
0100
0000
0010
0100
0001
0010
0000
0100
1000
0000
0010
0100
0001
0010
0001
,
0100
0010
0000
1000
0001
0010
0001
0000
0100
0010
0000
1000
0100
0010
0100
1000
,
0010
0100
0000
0001
0010
0100
1000
0000
0100
0010
0000
0001
0010
0100
1000
0001
,
0100
0000
0000
0010
0000
0000
1000
0000
0000
0001
0000
0000
1000
0000
0000
0000
0000
0000
0000
0000
1000
0000
0000
0000
0001
0000
0000
0000
0000
0000
0000
0000
0001
0000
0000
0000
0010
0000
0000
0000
0000
0000
0000
0000
0000
0000
0000
0000
,
0100
0000
0100
1000
0000
1000
0010
0000
0010
M10M
0010
0100
,
0010
0000
0010
1000
0000
1000
0100
0000
0100
0010
0000
0010
,
0001
0000
0000
M000
0001
0000
0100
0000
0000
0000
0100
0000
0001
0000
0000
0000
0001
0000
0010
0000
0000
0000
0010
0000
,
0100
0000
0000
0000
0000
0000
0000
0000
0000
0000
0000
0000
0000
0000
0000
0000
1000
0000
0000
0000
0000
0000
0000
0000
0000
0000
0000
0000
0000
0000
0000
0000
0100
0000
0000
0000
0000
0000
0000
0000
0000
0000
00MM
0000
0000
0000
0000
0000
1000
0000
0000
0000
0000
0000
0000
0000
0000
0000
0000
0000
0000
0000
0000
0000
0000
0000
0000
0000
0000
0000
0000
0000
0000
0000
0000
0000
0000
0000
0000
0000
1000
0000
0000
0000
0000
0000
0000
0000
0000
0000
0000
0000
0000
0000
0000
0000
0001
0000
0000
0000
0000
0000
0000
0000
0000
0000
0000
0000
0000
0000
0000
0000
0000
0000
0000
0000
0000
0000
0000
0000
0M00
0000
0000
0000
0000
0000
0000
0000
0001
0000
0000
0000
0000
0000
0000
0000
0000
0000
0000
0000
0000
0000
0000
0000
1000
0000
0000
0000
0000
0000
0000
0000
0000
0000
0000
0000
0000
0000
0000
0000
0000
0000
0000
0000
0000
0000
0000
0000
0000
0000
0000
0000
0000
0000
0000
0000
1000
0000
0000
0000
0000
0000
0000
0000
0000
0000
0000
0000
0000
0000
0000
0000
,
0001
0000
0010
0000
0100
0000
1000
0000
0000
0000
0010
0000
0100
0000
0000
M00M
0100
0000
0010
0000
0000
0000
0010
0000
,
1000
0000
0000
0000
0000
0000
0000
0000
0000
0000
0000
0000
0000
0000
0000
0000
0100
0000
0000
0000
0000
0000
0000
0000
0000
0000
0000
0000
0000
0000
0000
0000
0010
0000
0000
0000
0000
0000
0000
0000
0000
0000
0000
0000
0000
0000
0000
0000
M001
0000
0000
0000
0000
0000
0000
0000
0000
0000
0000
0000
0000
0000
0000
0000
0000
0000
0000
0000
0000
0000
0000
0000
0000
0000
0000
0000
0000
0000
0M00
0000
0010
0000
0000
0000
0000
0000
0000
0000
0000
0000
0000
0000
0000
0000
0000
0000
0001
0000
0000
0000
0000
0000
0000
0000
0000
0000
0000
0000
0000
0000
0000
0000
0000
0000
0000
0000
0000
0000
0000
0000
M000
0000
0000
0000
0000
0000
0000
0000
0100
0000
0000
0000
0000
0000
0000
0000
0000
0000
0000
0000
0000
0000
0000
0000
0010
0000
0000
0000
0000
0000
0000
0000
0000
0000
0000
0000
0000
0000
0000
0000
0000
0000
0000
0000
0000
0000
0000
0000
0000
0000
0000
0000
0000
0000
0000
0000
1000
0000
0000
0000
0000
0000
0000
0000
0000
0000
000M
0000
0000
0000
0000
0000
,
0100
0000
0000
0000
0000
0000
0000
0000
0000
0000
0000
0000
0000
0000
0000
0000
0000
0000
00M0
0000
0000
0000
0000
0000
0000
0000
0000
0000
0000
0000
0000
0000
1000
0000
0000
0000
0000
0000
0000
0000
0000
0000
0000
0000
0000
0000
0000
0000
0001
0000
0000
0000
0000
0000
0000
0000
0000
0000
0000
0000
0000
0000
0000
0000
0100
0000
0000
0000
0000
0000
0000
0000
0000
0000
0000
0000
0000
0000
0000
0000
0010
0000
0000
0000
0000
0000
0000
0000
0000
0000
0000
0000
0000
0000
0000
0000
1000
0000
0000
0000
0000
0000
0000
0000
0000
0000
0000
0000
0000
0000
0000
0000
0100
0000
0000
0000
0000
0000
0000
0000
0000
0000
0000
0000
0000
0000
0000
0000
0010
0000
0000
0000
0000
0000
0000
0000
0000
0000
0000
0000
0000
0000
0000
0000
0001
0000
0000
0000
0000
0000
0000
0000
1000
0000
0000
0000
0000
0000
0000
0000
0001
0000
0M00
0000
0000
0000
0000
0000
1000
0000
0000
0000
0000
0000
0000
0000
0001
0000
0000
0000
0000
0000
0000
0000
1000
0000
00M0
0000
0000
0000
0000
0000
,
0001
0000
1000
0M00
0001
0000
10M0
0000
0001
0000
2000
0000
0MM2
0000
0000
0000
0000
0000
3003
0000
0000
0000
0000
0000
1000
0000
0000
0000
0000
0000
100M
0000
0000
0000
0000
0000
0100
0000
0000
0000
0000
0000
0100
0000
0000
0000
0000
0000
,
M010
0000
0010
0000
0100
0000
010M
1000
0100
0000
0100
0000
0010
0000
M010
0000
,
0001
0000
0001
0000
M010
0000
0010
010M
0010
0000
M010
0000
0001
0000
0001
1000
,
00M1
0001
1M00
1000
001M
0010
M100
0100
,
00M1
0000
0001
0000
1000
0000
10M0
0001
1M00
0000
1000
0000
1M00
0000
1000
0000
,
1M00
0000
1000
0000
1M00
0000
0010
0100
M010
0000
0010
0000
001M
0000
0010
0000
,
M010
0000
0010
0000
001M
0000
0010
0100
M01M
0000
0010
0000
1M00
0000
1000
0000
,
00M1
0000
0001
0000
M100
0000
0100
0000
0001
0010
0100
100M
0100
0010
M001
0010
,
0100
100M
0100
0010
M001
0010
0100
1000
0002
0000
0023
0000
2M30
0000
3020
0000
,
0032
0203
2300
320M
0320
2030
3200
0302
,
0203
0300
22MM
3300
2000
3020
0032
M023
,
0230
0302
0023
2030
3020
023M
2300
3020
,
0032
0M23
2030
3002
0023
0M32
2003
3200
,
230M
3020
0230
0302
M023
0032
2003
32M0
,
2300
3000
22MM
3300
2000
320M
0320
0032
,
M203
0000
0300
0000
002M
0000
2030
0000
3001
0010
0100
1000
0100
0010
0001
0010
,
0100
1000
0100
0010
0001
0010
0100
1000
0001
0010
0001
0100
0010
1000
0100
1000
,
0010
0100
0001
0010
0001
0100
0010
1000
0100
0010
0001
0100
0010
1000
0001
1000
,
0100
1000
0010
0100
0001
0010
0001
0100
0010
1000
0100
1000
0010
0100
0010
1000
,
0100
1000
0001
0010
0001
0100
0001
0010
0001
0100
0010
1000
0100
1000
0010
0100
,
0001
0010
0100
1000
0100
0010
0001
1000
0010
0100
0001
0010
0001
0100
0010
1000
,
0100
1000
0010
0100
0001
0010
0001
0100
0010
1000
0010
0100
0001
0010
0001
1000
,
0100
1000
0010
0100
0001
0100
0001
0010
0001
0010
0001
0010
0100
1000
0100
1000
,
0001
0100
0001
0100
0010
1000
0010
1000
0001
0010
0100
0010
0001
1000
0100
0010
,
0001
0000
0010
0000
0100
0000
1000
0000
0001
0000
1000
0000
0001
0000
1000
0000
0001
0000
0000
0100
0000
0000
0000
01M1
0000
0000
0000
0000
0000
0000
0000
0000
,
0010
0000
0000
1000
0000
0000
0000
1M10
0000
0000
0000
0000
0000
0000
0000
0000
1000
0000
0000
010M
0000
0000
0000
0M10
0001
0000
0000
0010
0000
0000
0000
00M1
,
0100
0000
0000
0001
0000
0000
0000
100M
0010
0000
0000
1000
0000
0000
0000
0001
1000
0000
0000
0010
0000
0000
0000
1010
0M0M
0000
0000
0000
0000
0000
0000
0000
,
0010
0000
0000
0100
0000
0000
0000
M11M
0000
0000
0000
0000
0000
0000
0000
0000
0010
0000
0000
1M0M
0000
0000
0000
0100
0010
0000
0000
MM01
0000
0000
0000
1000
,
0001
0000
0000
0000
0000
0000
0000
0000
0000
0000
0000
0000
0000
0000
0000
0000
0001
0000
0000
0000
0000
0000
0000
0000
0010
0000
0000
0000
0000
0000
0000
0000
0000
0000
0000
0000
0000
0000
0000
0000
0010
0000
0000
0000
0000
0000
0000
0000
0100
0000
0000
0000
0000
0000
0000
0000
0000
0000
0000
0000
0000
0000
0000
0000
0100
0000
0000
0000
0000
0000
0000
0000
1000
0000
0000
0000
0000
0000
0000
0000
0000
0000
0000
0000
0000
0000
0000
0000
0001
0000
0000
0000
0000
0000
0000
0000
1MM1
0000
0000
0000
0000
0000
0000
0000
0000
0000
0000
0000
0000
0000
0000
0000
0000
0000
0001
0000
0000
0000
0000
0000
0000
0000
0000
0000
0000
0000
0000
0000
0000
0000
0000
0000
0000
0000
0000
0000
0000
0000
1MM1
0000
0000
0000
0000
0000
0000
0000
0000
0000
0000
0000
0000
0000
0000
0000
0000
0000
0000
0000
0000
0000
0000
0000
0000
0000
0000
0000
0000
0000
0000
0000
0000
0000
0000
0000
0000
0000
0000
0000
0000
0000
0000
0000
0000
0000
0000
0000
0000
0000
0000
0000
0000
0000
,
M11M
0000
0000
0010
0000
0000
0000
M11M
0000
0000
0000
0000
0000
0000
0000
0000
1000
0000
0000
1M10
0000
0000
0000
1000
0001
0000
0000
1MM1
0000
0000
0000
0001
,
0100
0000
0000
01M1
0000
0000
0000
0001
1000
0000
0000
1MM1
0000
0000
0000
0001
MM11
0000
0000
0001
0000
0000
0000
MM11
0000
0000
0000
0000
0000
0000
0000
M00M
,
0110
0000
0000
0100
0000
0000
M00M
0110
0000
0000
0000
0000
0000
0000
0000
0000
11MM
0000
0000
0100
0000
0000
0000
1000
0010
0000
0000
1M1M
0000
0000
0000
0010
,
100M
0000
0000
0000
0000
0000
0000
0000
0100
0000
0000
0000
0000
0000
0000
0000
0010
0000
0000
0000
0000
0000
0000
0000
M001
0000
0000
0000
0000
0000
0000
0000
0010
0000
0000
0000
0000
0000
0000
0000
0100
0000
0000
0000
0000
0000
0000
0000
1000
0000
0000
0000
0001
0000
0000
0000
1000
0000
0000
0000
00M1
0000
0000
0000
1000
0000
0M00
0000
0001
0000
0000
0000
10M0
0000
0000
0000
0001
0000
0M00
0000
1000
0000
0000
0000
0001
0000
0000
0000
1000
0000
00M0
0000
0002
0000
0000
0000
2000
0000
0000
0000
0000
0000
0000
0000
0000
0000
0000
0000
0000
0000
0000
0000
0000
0000
0M00
0000
0000
0000
0000
0000
0000
0000
0000
0000
0000
0000
0000
0000
0000
0000
0000
0000
0000
0000
0000
0000
0000
0000
0000
0000
0000
0000
0000
0000
30M3
0000
0000
0000
0000
0000
0000
0000
0000
0000
0000
0000
0000
0000
0000
0000
0000
0000
0000
0000
0000
0000
0000
0000
0000
0000
0000
0000
0000
0000
0000
0000
0000
0000
0000
0000
0000
0000
0000
0000
0000
0000
0000
0000
0000
0000
0000
0000
;

//---------------dance-single - MANIAC----------------
#NOTES:
     dance-single:
     MANIAC:
     Hard:
     9:
     0.689,0.856,0.075,0.057,0.589:
0000
0000
0000
0000
,
0000
0000
0000
0000
,
0000
0000
0000
0000
1000
0000
0100
0000
0001
0000
0100
1000
0000
0010
0001
0000
,
0010
1000
0001
0000
1000
0000
0010
0100
0000
0001
0010
0000
0001
0000
0010
0000
,
1000
0010
0001
0100
0010
1000
0100
1000
,
0010
0100
0001
0010
0001
1000
0100
0000
,
1100
0000
1000
0010
0001
0010
0100
0001
,
0010
1000
0010
0001
1000
0010
0001
0010
,
0100
0010
0100
0000
0010
0000
0100
0000
0001
0000
0010
0000
0100
0000
1000
0000
,
0010
0100
0001
0010
0001
0100
0010
0000
,
1010
0000
1000
0100
0001
0100
1000
0010
,
0001
0010
0100
0001
0010
1000
0010
0002
,
2000
0000
3003
0000
1000
0100
0010
0001
0010
0001
0000
0001
0000
0001
0100
0010
,
1000
0100
0000
0100
1000
0010
0100
0001
0010
0001
0000
0001
0010
0001
0100
0010
,
1000
0100
0000
1000
0010
0100
0001
0010
0100
1000
0000
1000
0000
1000
0100
0010
,
0001
1000
0000
1000
0100
0010
0001
0010
0100
1000
0000
1000
0010
0100
0001
1000
,
0010
0000
0000
0100
0000
0000
0001
0000
0000
0010
0000
0000
0001
0000
0000
0000
0000
0000
0000
0000
1000
0000
0000
0000
0001
0000
0000
0000
0000
0000
0000
0000
1000
0000
0000
0000
0001
0000
0000
0000
0000
0000
0000
0000
0000
0000
0000
0000
,
1000
0000
0100
1000
0000
0100
1000
0000
0100
1000
0010
0100
,
0001
0000
0010
0001
0000
0010
0001
0000
1000
0100
0000
1000
,
0100
0000
1000
0001
0000
1000
0001
0000
0100
0010
0000
0100
,
0010
1000
0001
1000
0000
0100
1000
0000
0001
0010
0000
0100
,
1000
0001
0010
0100
0000
1000
0001
0000
0100
0010
0000
1000
,
0100
0010
0001
1000
0000
0100
1000
0000
1000
0010
0000
0010
,
0100
0000
0100
0001
0010
0100
1000
0001
0100
0010
1000
0001
,
0010
0000
0100
0000
2000
0000
0002
0000
3003
0000
0000
0000
1000
0000
0000
0100
0000
0000
0010
0000
0000
0001
0000
0000
,
0100
0010
1000
0001
1000
0100
0010
0100
,
1000
0001
0010
0100
0010
0010
0100
0100
,
1000
1000
0001
0001
0100
0100
0010
0010
,
1000
1000
0001
0001
1000
0100
0010
0001
,
0010
0100
1000
0001
1000
0010
0100
0001
,
0100
0010
1000
0001
1000
1000
0100
0100
,
0010
0010
0001
0001
0100
0100
0010
0010
,
1000
1000
0001
0001
1000
0100
0001
0100
,
1000
0010
0001
0010
1000
0100
0001
0100
,
1000
0000
1001
0000
0001
0100
1000
0100
,
0001
0010
1000
0010
0001
0100
0010
1000
,
0100
0001
0100
1000
0001
0010
1000
0010
,
0001
0100
1000
0100
0001
0010
1000
0010
,
0001
0000
1001
0000
1000
0010
0001
0010
,
1000
0000
0001
0010
1000
0000
0010
0001
,
0100
0000
0000
0000
0010
0100
0010
0000
1000
0000
0100
0000
1000
0000
0010
0000
,
0100
0001
0010
0001
1000
0010
0001
0010
,
1000
0100
0001
0100
1000
0010
0100
0001
,
0010
0001
0100
0010
1000
0100
1000
0010
,
0100
0001
0010
0001
1000
0010
1000
0001
,
0100
0001
1000
0010
1000
0100
0001
0100
,
1000
0010
0001
0010
1000
0001
0100
0001
,
0100
0010
1000
0010
0100
0001
0010
0100
,
1000
0100
0010
0001
1000
0000
1000
0100
,
0100
0000
0010
0001
0000
0001
0010
0000
0001
0000
0010
0000
0100
0000
1000
0000
,
0110
0000
0000
0000
1001
0000
0000
0000
1000
0100
0010
0100
1000
0000
0100
0010
,
0000
0001
0010
0100
1000
0010
0100
0001
1000
0000
0100
1000
0000
0010
0100
0000
,
0001
0010
0100
1000
0100
0010
0001
1000
0001
0010
0100
0010
0001
0100
1000
0100
,
0001
0010
0100
1000
0100
0000
1100
0000
1000
0010
0100
0001
1000
0100
0010
0001
,
1000
0010
1000
0100
0010
0001
0100
0001
1000
0100
0010
0100
1000
0010
0001
0010
,
1000
0000
0000
0100
0000
0000
0010
0000
0000
0001
0000
0000
1000
0000
0000
0000
0000
0000
1001
0000
0000
0000
0000
0000
0001
0000
0000
0000
0001
0000
1000
0000
0000
0000
1000
0000
0001
0000
0000
0000
0001
0000
1000
0000
0000
0000
1000
0000
,
0001
0010
0100
1000
0001
0100
0010
1000
0001
0010
0100
2000
0002
0000
0000
0000
0000
0000
3003
0000
0000
0000
0000
0000
;

//---------------dance-single - TRICKY----------------
#NOTES:
     dance-single:
     TRICKY:
     Medium:
     6:
     0.337,0.455,0.132,0.236,0.000:
0000
0000
0000
0000
,
0000
0000
0000
0000
,
0000
0000
1000
0100
1000
0010
0000
0100
,
0001
0010
0001
0000
1001
0000
0001
0010
,
0100
1000
0001
0000
0010
0000
0100
0000
,
1000
0100
0010
0001
,
1001
1000
0100
1000
,
0100
0010
0001
0010
,
0001
1000
0010
0100
,
0001
0010
0100
1000
,
1001
0001
0010
0001
,
0010
0100
1000
0100
,
1000
2002
0000
3003
,
0000
0002
0000
2003
,
0000
3020
0000
0030
,
0000
0200
0000
0302
,
0000
1003
1000
0100
,
0100
0010
0010
0001
,
0001
1000
0001
1000
,
0001
0100
0010
0100
,
0010
1000
1000
0010
,
0010
0100
0100
0001
,
0001
0010
0100
0010
,
0100
1000
0001
1000
,
0001
1001
1000
0100
,
0010
0001
1000
0010
,
0100
0001
1000
1000
,
0001
0001
0100
0100
,
0010
0010
1000
0100
,
0010
0001
1000
0001
,
1000
0001
1000
1000
,
0010
0010
0100
0100
,
0001
0001
1000
0010
,
0001
0010
1000
0100
,
0001
0100
1000
0100
,
1000
0010
0100
0001
,
0010
0001
1000
0100
,
0001
0100
1000
0010
,
0001
0010
1000
0100
,
0010
0001
0010
0100
,
1000
0001
2000
0000
,
3200
0000
0320
0000
,
0032
0000
0203
0000
,
0320
0000
2030
0000
,
3002
0000
0023
0000
,
0032
0000
0203
0000
,
0320
0000
2030
0000
,
3200
0000
2300
0000
,
3020
0000
0130
0000
,
0110
0000
1001
0011
,
0110
1100
1000
0000
,
1001
0000
1100
0110
,
0010
0001
0010
0001
1000
0100
1000
0100
,
0010
0001
0010
0001
1000
0001
1000
0001
,
0100
0010
0100
0010
1000
1000
0100
0100
,
0010
0010
0001
0001
1000
0100
0010
0001
,
1000
0010
0100
0001
2002
0000
3003
0000
;

//---------------dance-single - BASIC----------------
#NOTES:
     dance-single:
     BASIC:
     Easy:
     3:
     0.244,0.267,0.132,0.132,0.000:
0000
0000
0000
0000
,
0000
0000
0000
0000
,
0000
1000
1000
0001
,
0001
0100
0000
0110
,
0000
0010
0000
1000
,
0000
0100
0000
0010
,
0000
0001
0000
0100
,
0000
0010
0000
1001
,
0000
1000
0000
1000
,
0000
0001
0000
0001
,
0000
1000
0100
0010
,
0000
0001
0010
0100
,
0000
1000
1000
0100
,
0100
0000
0010
0000
0010
0000
0001
0010
,
0001
0010
0010
0100
,
0100
0000
1000
0000
0001
0000
1000
0001
,
1000
0001
0000
1001
,
0000
1000
1010
0010
,
0110
0100
0000
0001
,
0000
0100
0101
0001
,
1001
1000
0000
1100
,
0000
0100
0000
1100
,
0000
1000
1001
0001
,
1001
1000
0100
0001
,
0100
1000
0100
0000
,
0100
0000
1000
0000
,
1000
0000
0001
0001
,
0100
0100
0010
0010
,
1000
1000
0001
0000
,
1001
0000
1000
0000
,
1010
0000
0010
0100
,
0010
0100
0001
1000
,
0001
1000
0002
0000
,
0000
0000
2003
0000
,
0000
0000
3020
0000
,
0230
0000
0302
0000
,
0023
0000
0230
0000
,
0000
0000
2300
0000
,
0000
0000
3020
0000
,
0230
0000
0302
0000
,
0023
0000
0130
0100
,
1000
1000
0010
0010
,
0100
0100
0001
0000
,
1000
0000
0001
0000
,
1000
0000
0010
0010
,
0100
0100
0001
0001
,
0010
0010
0100
0000
,
1000
0000
0001
1000
,
0001
1000
1000
0000
,
0001
0000
1000
0000
,
0001
0000
0100
0000
,
0010
0000
0100
0010
,
0100
0001
1000
0000
0001
0000
0000
0000
,
0010
0000
0100
1000
,
0010
0100
0001
0000
,
1000
0000
0001
0010
,
0100
1000
2002
3003
;

//---------------dance-single - SIMPLE----------------
#NOTES:
     dance-single:
     SIMPLE:
     Beginner:
     2:
     0.129,0.186,0.066,0.038,0.000: // measure 1
0000
0000
0000
0000
,  // measure 2
0000
0000
0000
0000
,  // measure 3
0000
1000
0000
0000
,  // measure 4
0000
0001
0000
0000
,  // measure 5
0000
1000
0000
0000
,  // measure 6
0000
1000
0000
0000
,  // measure 7
0000
0001
0000
0001
,  // measure 8
0000
0001
0000
0001
,  // measure 9
0000
0100
0000
0000
,  // measure 10
0000
0100
0000
0000
,  // measure 11
0000
0010
0000
0010
,  // measure 12
0000
0010
0000
0010
,  // measure 13
0000
1000
0000
0100
,  // measure 14
0000
0010
0000
0001
,  // measure 15
0000
1000
0000
0010
,  // measure 16
0000
0100
0000
0001
,  // measure 17
0000
1000
0000
0000
,  // measure 18
0000
1001
0000
0000
,  // measure 19
0000
0001
0000
0000
,  // measure 20
0000
1001
0000
0000
,  // measure 21
0000
0100
0000
0000
,  // measure 22
0000
0110
0000
0000
,  // measure 23
0000
0010
0000
0000
,  // measure 24
0000
0110
0000
0000
,  // measure 25
0000
1001
0001
0000
,  // measure 26
0001
0000
0010
0000
,  // measure 27
0010
0000
0100
0000
,  // measure 28
0100
0000
1000
0000
,  // measure 29
1000
0000
0001
0000
,  // measure 30
0000
0000
1000
0000
,  // measure 31
0000
0000
0001
0000
,  // measure 32
0010
0000
0100
1000
,  // measure 33
0100
0000
1000
0000
,  // measure 34
0000
0000
0000
0000
,  // measure 35
0000
0000
0001
0000
,  // measure 36
0000
0000
0000
0000
,  // measure 37
0000
0000
1000
0000
,  // measure 38
0001
0000
1000
0000
,  // measure 39
0001
0000
0100
0000
,  // measure 40
0010
0000
0100
0000
,  // measure 41
0010
0000
2000
0000
,  // measure 42
0000
0000
0000
0000
,  // measure 43
0000
0000
3002
0000
,  // measure 44
0000
0000
0000
0000
,  // measure 45
0000
0000
0203
0000
,  // measure 46
0000
0000
0000
0000
,  // measure 47
0000
0000
0320
0000
,  // measure 48
0000
0000
0000
0000
,  // measure 49
0000
0000
1030
0000
,  // measure 50
1010
0000
0010
0010
,  // measure 51
0100
0100
0001
0000
,  // measure 52
0001
0000
0001
0001
,  // measure 53
1000
1000
0001
0000
,  // measure 54
1000
0000
0010
0100
,  // measure 55
0001
1000
0001
0000
,  // measure 56
1000
0000
0001
0010
,  // measure 57
0100
1000
1001
0000
;
